<?xml version="1.0" standalone="no"?>
<!DOCTYPE svg PUBLIC "-//W3C//DTD SVG 1.1//EN" "http://www.w3.org/Graphics/SVG/1.1/DTD/svg11.dtd" >
<svg xmlns="http://www.w3.org/2000/svg">
<metadata>
This is a custom SVG webfont generated by Font Squirrel.
Copyright   : Copyright c 2003 by Bitstream Inc All Rights Reserved
Foundry     : Bitstream Inc
Foundry URL : httpwwwbitstreamcom
</metadata>
<defs>
<font id="webfontY7pkB7Q0" horiz-adv-x="1024" >
<font-face units-per-em="2048" ascent="1556" descent="-492" />
<missing-glyph horiz-adv-x="712" />
<glyph unicode=" "  horiz-adv-x="712" />
<glyph unicode="&#x09;" horiz-adv-x="712" />
<glyph unicode="&#xa0;" horiz-adv-x="712" />
<glyph unicode="!" horiz-adv-x="933" d="M287 0v356h360v-356h-360zM287 920v573h360v-573l-51 -418h-258z" />
<glyph unicode="&#x22;" horiz-adv-x="1064" d="M195 938v555h237v-555h-237zM635 938v555h237v-555h-237z" />
<glyph unicode="#" horiz-adv-x="1714" d="M139 383v215h328l70 274h-283v213h338l96 385h223l-96 -385h264l97 385h221l-97 -385h277v-213h-330l-69 -274h284v-215h-336l-96 -383h-221l96 383h-264l-96 -383h-223l96 383h-279zM690 598h264l70 274h-264z" />
<glyph unicode="$" horiz-adv-x="1423" d="M160 936q0 178 123 281q121 98 350 108v231h162v-227q131 -12 200 -24q106 -18 201 -45v-254q-92 39 -201 65q-90 23 -200 29v-287l32 -6q254 -39 357 -133q102 -92 102 -276.5t-123 -282.5q-121 -96 -368 -113v-303h-162v301q-119 6 -244 29q-104 18 -227 63v262 q115 -59 233 -90q129 -35 238 -37v312l-33 6q-238 43 -340 133q-100 88 -100 258zM477 971q0 -59 39 -92q40 -34 117 -43v262q-68 -2 -113 -39q-43 -35 -43 -88zM795 231q86 0 131 35q43 34 43 99q0 70 -39 102q-40 34 -135 43v-279z" />
<glyph unicode="%" horiz-adv-x="2050" d="M66 1114q0 190 106 297q109 109 293 109t293 -109q106 -106 106 -297q0 -193 -106 -299q-109 -109 -293 -108.5t-293 108.5q-106 106 -106 299zM315 1114q0 -119 39 -178q40 -61 111 -62q71 0 110 62q39 59 39 178q0 117 -39 176q-40 61 -110.5 61.5t-110.5 -61.5 q-39 -59 -39 -176zM449 -29l933 1549h222l-934 -1549h-221zM1186 379q0 188 108.5 296.5t293 108.5t292.5 -108q106 -106 106.5 -297t-106 -299.5t-293 -108.5t-293.5 109q-108 113 -108 299zM1438 379q0 -117 39 -176q40 -61 110 -62q74 0 111 61.5t37 176.5q0 117 -39 176 q-41 61 -109 61q-71 0 -110 -61q-39 -59 -39 -176z" />
<glyph unicode="&#x26;" horiz-adv-x="1785" d="M123 467q0 143 72 258q68 111 233 219q-35 43 -61 107q-20 49 -21 110q0 162 127 260q126 98 338 99q98 0 190 -15q96 -14 205 -43v-278q-98 51 -178 71q-86 23 -164 23t-119 -29q-43 -31 -43 -84q0 -35 25 -78q29 -51 72 -96l409 -450q51 70 80 157q27 82 33 197h311 q-14 -180 -71 -324q-55 -143 -154 -249l293 -322h-424l-98 109q-104 -71 -222 -105q-113 -33 -245 -33q-264 0 -426 137.5t-162 358.5zM469 506q0 -117 86 -197t203 -80q70 0 125 21q59 23 108 61l-391 432q-63 -45 -98 -106q-33 -57 -33 -131z" />
<glyph unicode="'" horiz-adv-x="626" d="M195 938v555h237v-555h-237z" />
<glyph unicode="(" horiz-adv-x="935" d="M176 641q0 219 74 444q72 219 225 469h297q-127 -231 -192 -464q-63 -223 -64 -447q0 -225 64 -448q66 -233 192 -465h-297q-147 236 -225 469q-74 221 -74 442z" />
<glyph unicode=")" horiz-adv-x="935" d="M164 -270q127 231 192 465q63 223 64 448q0 223 -64 447q-66 233 -192 464h297q154 -250 225 -469q74 -225 74 -444q0 -221 -74 -442q-78 -233 -225 -469h-297z" />
<glyph unicode="*" horiz-adv-x="1069" d="M41 870l334 174l-334 173l76 141l334 -182v344h170v-344l333 182l76 -141l-330 -173l330 -174l-76 -141l-333 184v-344h-170v344l-334 -184z" />
<glyph unicode="+" horiz-adv-x="1714" d="M217 524v236h522v524h238v-524h522v-236h-522v-524h-238v524h-522z" />
<glyph unicode="," horiz-adv-x="776" d="M109 -291l100 373v305h360v-305l-247 -373h-213z" />
<glyph unicode="-" horiz-adv-x="849" d="M111 444v291h628v-291h-628z" />
<glyph unicode="." horiz-adv-x="776" d="M209 0v387h360v-387h-360z" />
<glyph unicode="/" horiz-adv-x="747" d="M0 -190l526 1683h222l-527 -1683h-221z" />
<glyph unicode="0" horiz-adv-x="1423" d="M98 745.5q0 370.5 160 573.5q158 201 455 201t454 -201q160 -203 160 -573.5t-160 -573.5q-158 -201 -454.5 -201t-454.5 201q-160 203 -160 573.5zM483 748q0 -281 54 -400q51 -115 176 -115t176 115q53 119 53 400q0 279 -53 395q-53 115 -176 114.5t-176 -114.5 q-54 -116 -54 -395z" />
<glyph unicode="1" horiz-adv-x="1423" d="M231 1159v262l347 72h366v-1227h340v-266h-1044v266h340v965z" />
<glyph unicode="2" horiz-adv-x="1423" d="M162 0v283l545 481q76 66 108 129q35 66 35 131q0 106 -69.5 169.5t-188.5 63.5q-92 0 -197 -38q-113 -43 -229 -115v328q133 43 258 65q131 23 248 23q268 0 415 -117q150 -119 150 -330q0 -125 -63 -227q-68 -111 -265 -283l-319 -280h657v-283h-1085z" />
<glyph unicode="3" horiz-adv-x="1423" d="M137 45v297q104 -53 215 -82q104 -27 209 -27q150 0 234 54q82 51 82 151.5t-84 153.5t-246 53h-154v248h162q145 0 215 45q72 47 72 139q0 86 -70 133t-194 47q-98 0 -189 -20q-80 -18 -188 -63v282q121 33 225 47q119 16 221 17q293 0 436.5 -94.5t143.5 -288.5 q0 -129 -70 -215q-68 -83 -203 -117q150 -39 230 -135q78 -92 78 -246q0 -221 -170 -338q-166 -115 -496 -115q-115 0 -231 19q-111 18 -228 55z" />
<glyph unicode="4" horiz-adv-x="1423" d="M92 272v330l598 891h428v-942h213v-279h-213v-272h-364v272h-662zM332 551h422v625z" />
<glyph unicode="5" horiz-adv-x="1423" d="M158 70v303q125 -72 231 -105q115 -35 207 -35q141 0 221 68t80 186.5t-80 186t-221 67.5q-76 0 -176 -22q-104 -25 -203 -66v840h957v-283h-650v-231q41 12 88 18q43 6 93 7q274 0 425.5 -135.5t151.5 -381.5q0 -242 -166 -378q-164 -137 -459 -138q-126 0 -251 25 t-248 74z" />
<glyph unicode="6" horiz-adv-x="1423" d="M127 725q0 371 186.5 582t511.5 211q94 0 199 -17q90 -14 193 -47v-276q-95 46 -179 67q-80 20 -164 21q-174 0 -268 -95q-98 -98 -112 -284q63 47 143 74q76 25 168 24q229 0 369 -133q141 -135 141 -352q0 -240 -158 -385q-156 -143 -420 -144q-291 0 -450.5 197 t-159.5 557zM539 475q0 -129 51 -196q49 -66 151.5 -66t151.5 66q51 68 51 196.5t-51 196.5q-49 66 -151.5 65.5t-151.5 -65.5q-51 -68 -51 -197z" />
<glyph unicode="7" horiz-adv-x="1423" d="M137 1210v283h1125v-217l-582 -1276h-375l551 1210h-719z" />
<glyph unicode="8" horiz-adv-x="1423" d="M125 420q0 143 78 239q74 90 229 136q-137 41 -205 127q-70 88 -69 211q0 190 141 288.5t414 98.5q270 0 411.5 -98.5t141.5 -288.5q0 -127 -70 -211q-72 -88 -205 -127q156 -45 230 -136q78 -96 77 -239q0 -223 -147 -336q-145 -113 -438 -113t-439 113 q-149 115 -149 336zM489 440q0 -111 58 -168q59 -59 166 -59q104 0 164 59q57 57 57 168q0 113 -57.5 170.5t-164 57.5t-165.5 -60q-58 -57 -58 -168zM522 1094q0 -88 49 -138q47 -47 142 -47q92 0 139 47q49 49 49 138q0 90 -49 137q-51 47 -139 47q-94 0 -142 -47 q-49 -49 -49 -137z" />
<glyph unicode="9" horiz-adv-x="1423" d="M106 987q0 242 156 385q158 145 420 146q293 0 452.5 -197t159.5 -557q0 -371 -186 -582t-514 -211q-113 0 -201 15q-92 14 -188 47v276q96 -45 176 -65.5t166 -20.5q172 0 268 96q94 94 113 283q-72 -53 -146 -76q-77 -25 -166 -24q-227 0 -370 133q-140 131 -140 352z M477 1014q0 -133 51 -197q53 -66 151.5 -65.5t151.5 65.5q51 63 51.5 196.5t-51.5 196.5q-53 66 -151 66t-152 -66q-51 -63 -51 -196z" />
<glyph unicode=":" horiz-adv-x="817" d="M229 0v387h361v-387h-361zM229 733v387h361v-387h-361z" />
<glyph unicode=";" horiz-adv-x="817" d="M129 -291l100 373v305h361v-305l-248 -373h-213zM229 733v387h361v-387h-361z" />
<glyph unicode="&#x3c;" horiz-adv-x="1714" d="M217 524v236l1282 463v-250l-964 -332l964 -330v-250z" />
<glyph unicode="=" horiz-adv-x="1714" d="M217 295v237h1282v-237h-1282zM217 752v235h1282v-235h-1282z" />
<glyph unicode="&#x3e;" horiz-adv-x="1714" d="M217 61v250l965 330l-965 332v250l1282 -463v-236z" />
<glyph unicode="?" horiz-adv-x="1187" d="M141 1124v314q98 35 221 61q96 20 193 21q244 0 373 -99q127 -96 127 -291q0 -100 -39 -176q-41 -80 -133 -166l-64 -57q-68 -61 -90 -100q-20 -35 -20 -82v-45h-361v49q0 82 33 145q35 66 139 162l64 58q53 49 84 98q27 45 26 92q0 68 -49 109q-51 41 -133 40 q-76 0 -174 -34q-96 -34 -197 -99zM348 0v356h361v-356h-361z" />
<glyph unicode="@" horiz-adv-x="2048" d="M135 543q0 182 68 348q66 160 194 289q131 127 293 192q170 68 348 68q223 0 408 -86q180 -84 305 -246q72 -94 113 -213q39 -111 39 -240q0 -272 -162 -421.5t-461 -149.5h-39v154q-31 -72 -96.5 -111t-155.5 -39q-174 0 -280.5 125t-106.5 323.5t109 325.5 q106 125 278 125q86 0 156 -41q66 -39 96 -110v131h209v-693q125 18 195 119q72 102 71 258q0 96 -28 187q-27 86 -89 161q-96 123 -237 189q-143 66 -309 65q-115 0 -222 -30q-104 -31 -196 -90q-147 -98 -229 -254q-84 -158 -84 -336q0 -147 53 -279q51 -127 155 -231 q100 -96 230 -150q127 -51 276 -51q123 0 252 47q125 45 215 127l107 -162q-125 -96 -273 -149q-145 -51 -299 -51q-184 0 -350 65q-162 63 -291 191q-127 123 -194 290q-68 167 -68 353zM831 539q0 -125 51.5 -195t143.5 -70q88 0 141.5 72t53.5 192.5t-54 192.5 q-51 70 -143 70q-90 0 -141.5 -69.5t-51.5 -192.5z" />
<glyph unicode="A" horiz-adv-x="1583" d="M10 0l553 1493h459l553 -1493h-387l-94 272h-602l-95 -272h-387zM588 549h409l-204 594z" />
<glyph unicode="B" horiz-adv-x="1560" d="M188 0v1493h578q313 0 451 -94q139 -96 139 -301q0 -109 -51 -185q-53 -80 -148 -114q127 -39 193 -133q68 -98 67 -238q0 -215 -145.5 -321.5t-444.5 -106.5h-639zM573 262h226q115 0 174 49t59 148q0 96 -57 145t-176 49h-226v-391zM573 915h213q92 0 138 39 q47 41 47 119q0 76 -47 117t-138 41h-213v-316z" />
<glyph unicode="C" horiz-adv-x="1501" d="M102 745.5q0 356.5 217.5 565.5t591.5 209q131 0 240 -27q111 -27 221 -84v-309q-106 72 -211 106q-109 35 -219 35q-207 0 -324 -131q-119 -135 -118 -365q0 -227 118 -362q117 -133 324 -133q111 0 219 35q104 35 211 106v-309q-104 -53 -221 -82q-119 -29 -240 -29 q-375 0 -592 209t-217 565.5z" />
<glyph unicode="D" horiz-adv-x="1699" d="M188 0v1493h406q340 0 506 -49q170 -51 286 -164q102 -100 156 -233q51 -129 51 -299q0 -172 -51 -302q-53 -133 -156 -233q-117 -115 -288 -164q-169 -49 -504 -49h-406zM573 291h138q236 0 360.5 116.5t124.5 340.5q0 219 -125 337q-123 117 -360 117h-138v-911z" />
<glyph unicode="E" horiz-adv-x="1398" d="M188 0v1493h1039v-291h-654v-278h615v-291h-615v-342h676v-291h-1061z" />
<glyph unicode="F" horiz-adv-x="1398" d="M188 0v1493h1039v-291h-654v-278h615v-291h-615v-633h-385z" />
<glyph unicode="G" horiz-adv-x="1679" d="M102 745q0 360 222 568q223 207 608 207q154 0 285 -27q137 -29 258 -84v-309q-133 76 -248 106q-127 35 -248 35q-229 0 -354 -129q-125 -127 -125 -367q0 -236 121 -366q121 -129 340 -129q43 0 112 8q49 6 92 23v290h-235v258h600v-718q-143 -70 -299 -105 q-158 -35 -320 -35q-375 0 -592 209t-217 565z" />
<glyph unicode="H" horiz-adv-x="1712" d="M188 0v1493h385v-569h568v569h385v-1493h-385v633h-568v-633h-385z" />
<glyph unicode="I" horiz-adv-x="761" d="M188 0v1493h385v-1493h-385z" />
<glyph unicode="J" horiz-adv-x="761" d="M-115 -119h60q121 0 182 67.5t61 196.5v1348h385v-1348q0 -279 -151 -417q-150 -137 -459 -138h-78v291z" />
<glyph unicode="K" horiz-adv-x="1585" d="M188 0v1493h385v-545l555 545h447l-719 -707l793 -786h-482l-594 588v-588h-385z" />
<glyph unicode="L" horiz-adv-x="1304" d="M188 0v1493h385v-1202h676v-291h-1061z" />
<glyph unicode="M" horiz-adv-x="2037" d="M188 0v1493h490l340 -799l342 799h489v-1493h-364v1092l-344 -805h-244l-344 805v-1092h-365z" />
<glyph unicode="N" horiz-adv-x="1712" d="M188 0v1493h430l543 -1024v1024h365v-1493h-430l-543 1024v-1024h-365z" />
<glyph unicode="O" horiz-adv-x="1740" d="M102 745.5q0 364.5 205 569.5t563 205q360 0 564 -205q205 -209 204.5 -569.5t-204.5 -569.5q-203 -205 -564 -205q-358 0 -563 205t-205 569.5zM500 745.5q0 -235.5 98 -364.5q100 -131 272 -131q174 0 275 131q96 127 96 364.5t-96 364.5q-100 131 -275 131 q-172 0 -272 -131q-98 -129 -98 -364.5z" />
<glyph unicode="P" horiz-adv-x="1499" d="M188 0v1493h639q281 0 437 -127q154 -125 153.5 -360.5t-153.5 -360.5q-156 -127 -437 -127h-254v-518h-385zM573 797h213q111 0 172.5 55t61.5 153.5t-61.5 153.5t-172.5 55h-213v-417z" />
<glyph unicode="Q" horiz-adv-x="1740" d="M102 745q0 365 205 570t563 205q362 0 565 -203t203 -572q0 -252 -108.5 -434t-308.5 -274l301 -336h-367l-244 272h-30q-369 0 -574 202.5t-205 569.5zM500 745q0 -238 96 -368q94 -127 274 -127q174 0 275 131q96 127 96 364.5t-96 364.5q-100 131 -275 131 q-172 0 -272 -131q-98 -129 -98 -365z" />
<glyph unicode="R" horiz-adv-x="1576" d="M188 0v1493h588q293 0 432 -98q137 -98 138 -314q0 -147 -72 -243q-70 -92 -215 -140q82 -18 141 -82q66 -68 127 -192l209 -424h-410l-182 371q-57 113 -113 153q-57 41 -149 41h-109v-565h-385zM573 831h162q123 0 174.5 45.5t51.5 147.5t-52 145q-55 45 -174 45h-162 v-383z" />
<glyph unicode="S" horiz-adv-x="1474" d="M147 1057q0 225 143.5 344t414.5 119q125 0 253 -19q131 -18 269 -55v-316q-119 53 -240 82t-221 29q-137 0 -205 -39q-66 -37 -65 -117q0 -59 45 -94q41 -33 161 -57l164 -33q248 -49 355 -151q104 -102 104 -291q0 -246 -147 -367q-150 -121 -447 -121 q-145 0 -284.5 27t-286.5 80v325q135 -72 276 -114q129 -39 258 -39q125 0 192.5 43t67.5 119q0 72 -45 108.5t-182 67.5l-149 33q-223 49 -328 153q-103 103 -103 283z" />
<glyph unicode="T" horiz-adv-x="1396" d="M10 1202v291h1376v-291h-495v-1202h-385v1202h-496z" />
<glyph unicode="U" horiz-adv-x="1662" d="M188 598v895h385v-895q0 -186 60 -264q61 -80 198.5 -80t198.5 80q59 78 60 264v895h385v-895q0 -319 -158 -471q-162 -156 -485.5 -156t-485.5 156q-158 152 -158 471z" />
<glyph unicode="V" horiz-adv-x="1583" d="M10 1493h387l396 -1102l395 1102h387l-553 -1493h-459z" />
<glyph unicode="W" horiz-adv-x="2258" d="M61 1493h369l258 -1085l256 1085h371l256 -1085l258 1085h366l-352 -1493h-444l-271 1135l-268 -1135h-444z" />
<glyph unicode="X" horiz-adv-x="1576" d="M39 0l518 762l-498 731h402l327 -481l326 481h404l-498 -731l518 -762h-401l-349 510l-346 -510h-403z" />
<glyph unicode="Y" horiz-adv-x="1482" d="M-20 1493h421l340 -532l340 532h422l-569 -864v-629h-385v629z" />
<glyph unicode="Z" horiz-adv-x="1484" d="M92 0v233l801 969h-778v291h1255v-233l-801 -969h824v-291h-1301z" />
<glyph unicode="[" horiz-adv-x="935" d="M176 -270v1826h621v-225h-281v-1376h281v-225h-621z" />
<glyph unicode="\" horiz-adv-x="747" d="M0 1493h221l527 -1683h-222z" />
<glyph unicode="]" horiz-adv-x="935" d="M139 -45h281v1376h-281v225h621v-1826h-621v225z" />
<glyph unicode="^" horiz-adv-x="1714" d="M207 936l528 557h246l528 -557h-241l-410 301l-409 -301h-242z" />
<glyph unicode="_" d="M0 -293h1024v-190h-1024v190z" />
<glyph unicode="`" d="M94 1638h283l282 -376h-196z" />
<glyph unicode="a" horiz-adv-x="1380" d="M88 336q0 197 135 289t426 92h211v28q0 86 -67 125q-66 39 -209 39q-111 0 -213 -22q-92 -20 -185 -70v273q113 27 232 43q109 14 231 14q305 0 438.5 -119t133.5 -389v-639h-361v166q-70 -100 -162 -148q-90 -47 -219 -47q-176 0 -282 101q-109 102 -109 264zM449 354 q0 -68 45 -106.5t127 -38.5q104 0 170 72q70 76 69 182v41h-186q-113 0 -168 -37q-57 -39 -57 -113z" />
<glyph unicode="b" horiz-adv-x="1464" d="M172 0v1556h358v-600q72 96 164 144q90 47 207 47q209 0 340 -164q133 -168 133 -424t-133 -424q-131 -164 -340 -164q-117 0 -207 47q-92 47 -164 144v-162h-358zM530 559q0 -158 62 -244q59 -84 176 -84q115 0 176 84q59 80 59.5 244t-59.5 244q-61 84 -176 84 q-117 0 -176 -84q-62 -86 -62 -244z" />
<glyph unicode="c" horiz-adv-x="1212" d="M88 559q0 276 170 432t475 156q82 0 174 -17q88 -16 170 -45v-292q-74 49 -147.5 73.5t-151.5 24.5q-150 0 -233.5 -88t-83.5 -244t84 -244t233 -88q83 0 160 25q74 23 139 74v-293q-88 -33 -170 -47q-80 -14 -174 -15q-305 0 -475 156t-170 432z" />
<glyph unicode="d" horiz-adv-x="1464" d="M92 559q0 256 133 424q131 164 340 164q115 0 205 -47q92 -47 164 -144v600h360v-1556h-360v162q-74 -98 -164 -146q-88 -45 -205 -45q-209 0 -340 164q-133 168 -133 424zM463 559q0 -162 61 -244q61 -84 174 -84q115 0 176 84q59 80 59.5 244t-59.5 244q-61 84 -176 84 q-113 0 -174 -84q-61 -82 -61 -244z" />
<glyph unicode="e" horiz-adv-x="1388" d="M88 559q0 273 166 430q168 158 455 158q262 0 421.5 -160t159.5 -424v-102h-837q12 -121 92 -189q76 -63 217 -63q115 0 231 33q111 31 244 102v-276q-113 -45 -254 -72q-127 -25 -254 -25q-304 0 -473 154q-168 153 -168 434zM457 682h465q0 100 -59.5 163.5 t-155.5 63.5q-102 0 -168 -59q-68 -62 -82 -168z" />
<glyph unicode="f" horiz-adv-x="890" d="M39 864v256h178v78q0 184 102 270q104 88 316 88h274v-235h-198q-78 0 -107 -26.5t-29 -96.5v-78h306v-256h-306v-864h-358v864h-178z" />
<glyph unicode="g" horiz-adv-x="1464" d="M92 573q0 254 133 412q135 160 340 160q117 0 205 -45q90 -47 164 -146v166h360v-1007q0 -272 -170 -412q-174 -143 -495 -143q-98 0 -203 16q-98 15 -197 49v279q84 -49 185 -80q86 -27 180 -27q174 0 258 78q82 76 82 240v77q-74 -98 -164 -145q-88 -45 -205 -45 q-205 0 -340 162q-133 159 -133 411zM463 573q0 -156 59 -233q61 -80 176 -80q113 0 174 82q61 84 61.5 231.5t-61.5 231.5q-61 82 -173.5 82t-174.5 -82q-61 -85 -61 -232z" />
<glyph unicode="h" horiz-adv-x="1456" d="M172 0v1556h358v-600q78 96 172.5 143.5t200.5 47.5q195 0 295 -119t100 -346v-682h-360v111v409q0 147 -6 203q-6 53 -23 80q-25 39 -57 55q-37 18 -82 19q-111 0 -176 -86q-63 -84 -64 -240v-551h-358z" />
<glyph unicode="i" horiz-adv-x="700" d="M172 0v1120h358v-1120h-358zM172 1264v292h358v-292h-358z" />
<glyph unicode="j" horiz-adv-x="700" d="M-68 -207h62q102 0 139 45q39 49 39 182v1100h358v-1100q0 -223 -108 -344q-106 -119 -313 -118h-177v235zM172 1264v292h358v-292h-358z" />
<glyph unicode="k" horiz-adv-x="1361" d="M172 0v1556h358v-847l412 411h416l-547 -514l590 -606h-434l-437 467v-467h-358z" />
<glyph unicode="l" horiz-adv-x="700" d="M172 0v1556h358v-1556h-358z" />
<glyph unicode="m" horiz-adv-x="2131" d="M170 0v1120h360v-164q63 92 152 144q82 47 188 47q117 0 205 -55.5t135 -157.5q63 98 162 158q92 55 205 55q195 0 295 -119t100 -346v-682h-360v584q0 4 1 12t1 14v41q0 119 -35 172.5t-113 53.5q-102 0 -157 -84q-53 -82 -58 -242v-551h-360v584q0 184 -33 239 q-31 53 -113 54q-106 0 -159 -84q-55 -86 -56 -242v-551h-360z" />
<glyph unicode="n" horiz-adv-x="1456" d="M172 0v1120h358v-164q78 96 172.5 143.5t200.5 47.5q195 0 295 -119t100 -346v-682h-360v111v411q0 145 -6 201q-6 53 -23 80q-25 39 -57 55q-37 18 -82 19q-111 0 -176 -86q-63 -84 -64 -240v-551h-358z" />
<glyph unicode="o" horiz-adv-x="1406" d="M88 559q0 274 164 432q162 156 452.5 156t452.5 -155.5t162 -432t-162 -432.5t-452.5 -156t-452.5 156q-164 158 -164 432zM461 559q0 -158 63 -246q61 -86 180 -86t180.5 86t61.5 246t-61.5 246t-180 86t-180.5 -86q-63 -88 -63 -246z" />
<glyph unicode="p" horiz-adv-x="1464" d="M172 -426v1546h358v-164q72 96 164 144q90 47 207 47q209 0 340 -164q133 -168 133 -424t-133 -424q-131 -164 -340 -164q-117 0 -207 47q-92 47 -164 144v-588h-358zM530 559q0 -158 62 -244q59 -84 176 -84q115 0 176 84q59 80 59.5 244t-59.5 244q-61 84 -176 84 q-117 0 -176 -84q-62 -86 -62 -244z" />
<glyph unicode="q" horiz-adv-x="1464" d="M92 559q0 258 133 422t340 164q117 0 205 -45q90 -47 164 -146v166h360v-1546h-360v588q-74 -98 -164 -146q-88 -45 -205 -45q-209 0 -340 164q-133 168 -133 424zM463 559q0 -162 61 -244q61 -84 174 -84q115 0 176 84q59 80 59.5 244t-59.5 244q-61 84 -176 84 q-113 0 -174 -84q-61 -82 -61 -244z" />
<glyph unicode="r" horiz-adv-x="1009" d="M172 0v1120h358v-184q68 111 158 160q92 51 215 51q6 0 18.5 -1t20.5 -1q22 0 62 -6v-324q-53 25 -93 33q-51 10 -94 10q-139 0 -213 -88q-74 -90 -74 -254v-516h-358z" />
<glyph unicode="s" horiz-adv-x="1218" d="M106 797q0 180 121 264q123 86 375 86q109 0 209 -14q94 -14 236 -48v-272q-104 45 -222 72q-108 25 -202 24q-98 0 -152 -26q-49 -25 -49 -78q0 -43 37 -66q39 -23 135 -34l63 -9q272 -33 369 -114q96 -80 96 -252q0 -178 -133 -268.5t-393 -90.5q-123 0 -229.5 16.5 t-243.5 53.5v272q113 -55 219 -77q123 -27 229 -27q104 0 157.5 28.5t53.5 86.5q0 47 -36.5 71.5t-145.5 36.5l-63 8q-238 31 -334.5 111t-96.5 246z" />
<glyph unicode="t" horiz-adv-x="978" d="M27 864v256h178v318h358v-318h369v-256h-369v-475q0 -78 31 -106q29 -27 123 -27h184v-256h-307q-213 0 -301 88t-88 301v475h-178z" />
<glyph unicode="u" horiz-adv-x="1456" d="M160 436v684h360v-112q0 -27 -1 -103t-1 -125v-184q0 -137 6 -195t25 -86q25 -39 57 -55q37 -18 82 -18q111 0 176 86q63 84 64 239v553h358v-1120h-358v162q-76 -94 -172 -144q-90 -47 -199 -47q-195 0 -295 119q-102 121 -102 346z" />
<glyph unicode="v" horiz-adv-x="1333" d="M31 1120h358l279 -774l278 774h359l-441 -1120h-393z" />
<glyph unicode="w" horiz-adv-x="1890" d="M72 1120h348l188 -772l189 772h299l188 -764l189 764h348l-295 -1120h-391l-189 770l-188 -770h-391z" />
<glyph unicode="x" horiz-adv-x="1320" d="M31 0l424 573l-404 547h379l229 -332l232 332h379l-404 -545l424 -575h-379l-252 354l-249 -354h-379z" />
<glyph unicode="y" horiz-adv-x="1333" d="M25 1120h358l301 -760l256 760h358l-471 -1226q-70 -186 -165 -261q-98 -76 -250 -75h-207v235h112q86 0 132 29q43 29 65 104l10 31z" />
<glyph unicode="z" horiz-adv-x="1191" d="M92 0v250l590 614h-565v256h977v-250l-590 -614h590v-256h-1002z" />
<glyph unicode="{" horiz-adv-x="1456" d="M256 494v223h61q139 0 195 57q55 58 55 209v205q0 195 101 280q104 88 317 88h217v-225h-69q-139 0 -182.5 -43t-43.5 -186v-166q0 -158 -45 -227q-47 -72 -155 -97q113 -29 155 -98q45 -74 45 -227v-166q0 -143 43 -186.5t183 -43.5h69v-225h-217q-217 0 -317.5 88 t-100.5 281v192q0 151 -55 209q-55 57 -195 58h-61z" />
<glyph unicode="|" horiz-adv-x="747" d="M260 -483v2048h227v-2048h-227z" />
<glyph unicode="}" horiz-adv-x="1456" d="M256 -109h70q139 0 182 43t43 187v166q0 158 45 227q47 72 156 98q-109 25 -156 97q-45 70 -45 227v166q0 143 -43 186t-182 43h-70v225h217q213 0 318 -88q100 -86 100 -280v-205q0 -154 53 -209q55 -57 197 -57h61v-223h-61q-141 0 -197 -58q-53 -55 -53 -209v-192 q0 -193 -100.5 -281t-317.5 -88h-217v225z" />
<glyph unicode="~" horiz-adv-x="1714" d="M217 434v244q111 82 197 115q92 35 184 34q102 0 250 -59q8 -2 22.5 -8t22.5 -8q154 -61 248 -62q84 0 170 37q82 35 188 123v-244q-111 -82 -196 -114q-92 -35 -185 -35q-109 0 -250 57l-12 6t-10 4q-14 4 -23 8q-154 61 -248 62q-90 0 -174 -39q-92 -43 -184 -121z" />
<glyph unicode="&#xa1;" horiz-adv-x="933" d="M287 0v573l51 418h258l51 -418v-573h-360zM287 1137v356h360v-356h-360z" />
<glyph unicode="&#xa2;" horiz-adv-x="1423" d="M174 575q0 244 135 390q137 147 393 180v287h162v-287q84 -4 146 -17q76 -16 151 -43v-292q-72 49 -145 73q-70 25 -137 25h-15v-664q80 0 164 27q72 23 133 72v-293q-78 -29 -155.5 -45.5t-131.5 -16.5h-10v-284h-162v288q-264 41 -395 191q-133 151 -133 409z M547 559.5q0 -110.5 39 -182.5q40 -74 116 -117v598q-77 -43 -116 -117q-39 -71 -39 -181.5z" />
<glyph unicode="&#xa3;" horiz-adv-x="1423" d="M125 0v266h227v326h-194v239h194v170q0 272 127 395.5t402 123.5q94 0 182 -13q86 -12 180 -41v-286q-68 39 -143 57q-82 20 -152 20q-117 0 -174 -63.5t-57 -192.5v-170h373v-239h-373v-326h538v-266h-1130z" />
<glyph unicode="&#xa4;" horiz-adv-x="1302" d="M74 215l207 207q-23 41 -41 102q-14 49 -15 117q0 66 15 117q16 55 45 100l-209 205l153 154l207 -207q47 31 103 45q51 14 114 14q43 0 109 -14q45 -10 110 -41l207 207l152 -154l-207 -207q28 -55 43 -110q14 -51 14 -109q0 -66 -14 -115q-16 -59 -45 -100l207 -207 l-154 -153l-207 206q-41 -29 -100 -45q-49 -14 -115 -14q-47 0 -112 14q-51 10 -107 41l-207 -207zM434 641q0 -92 63.5 -155.5t155.5 -63.5t155.5 63.5t63.5 155.5t-63.5 155.5t-155.5 63.5t-155.5 -63.5t-63.5 -155.5z" />
<glyph unicode="&#xa5;" horiz-adv-x="1423" d="M25 1493h399l289 -461l288 461h400l-336 -539h293v-192h-406l-49 -86v-66h455v-194h-455v-416h-381v416h-454v194h454v66l-49 86h-405v192h292z" />
<glyph unicode="&#xa6;" horiz-adv-x="747" d="M260 -350v758h227v-758h-227zM260 674v758h227v-758h-227z" />
<glyph unicode="&#xa7;" d="M14 668q0 106 56 182q53 74 168 127q-74 51 -107 106q-33 53 -33 131q0 145 115 225.5t315 80.5q90 0 174 -15q92 -16 183 -43v-227q-104 43 -178 59q-80 18 -136 19q-76 0 -112 -25q-39 -27 -39 -71q0 -66 188 -146l22.5 -9t16.5 -7q207 -88 289 -176q80 -86 80 -211 q0 -117 -55 -197q-53 -76 -175 -127q76 -39 115 -98q37 -55 37 -129q0 -143 -121 -227.5t-334 -84.5q-92 0 -176 15q-94 16 -192 43v237q129 -45 207 -63q88 -20 147 -21q65 0 104 25t39 65q0 70 -180 144q-10 4 -29.5 11t-25.5 11q-201 86 -283 177q-80 88 -80 219z M299 702q0 -68 61 -116q63 -51 244 -115q68 23 101 61q35 41 34 93q0 68 -69 120q-66 51 -236 111q-68 -29 -102 -65q-33 -36 -33 -89z" />
<glyph unicode="&#xa8;" d="M197 1339v246h235v-246h-235zM592 1339v246h235v-246h-235z" />
<glyph unicode="&#xa9;" horiz-adv-x="2048" d="M283 741q0 152 55 285t162 240q109 109 241 164t283 55t283 -55q133 -55 241 -164q106 -106 161.5 -239.5t55.5 -285.5q0 -154 -55 -282q-59 -135 -162 -240q-109 -109 -241 -164t-283 -55t-283 55q-133 55 -241 164q-102 104 -162 240q-55 128 -55 282zM434 741.5 q0 -120.5 43 -225.5q41 -100 131 -190q86 -86 190.5 -129t225.5 -43t225.5 43t190.5 129q90 90 131 190q43 104 43 225t-43 226q-41 100 -131 190t-191 131q-104 43 -225 43t-225 -43q-100 -41 -190.5 -131t-131.5 -190q-43 -105 -43 -225.5zM600 741.5q0 194.5 127 311.5 q126 117 338 116q61 0 133 -10q53 -8 125 -33v-215q-53 33 -113 54q-55 18 -112 18q-113 0 -176.5 -63.5t-63.5 -178t63.5 -178t176.5 -63.5q61 0 121 18q55 18 104 53v-213q-70 -23 -131 -34q-53 -10 -127 -11q-212 0 -338 117q-127 117 -127 311.5z" />
<glyph unicode="&#xaa;" horiz-adv-x="1153" d="M158 946q0 143 104 207q106 66 332 66h137v20q0 53 -45 86q-41 29 -129 29q-96 0 -170 -17q-76 -16 -162 -53v180q78 23 176 41q80 14 160 15q221 0 332 -88q109 -86 108 -267v-448h-245v127q-55 -76 -125 -113q-68 -35 -164 -35q-144 0 -227 68q-82 67 -82 182zM176 373 v200h813v-200h-813zM406 967q0 -53 32 -80q35 -29 92 -29q88 0 145.5 57.5t57.5 143.5v22h-90q-127 0 -184 -26q-53 -25 -53 -88z" />
<glyph unicode="&#xab;" horiz-adv-x="1320" d="M158 506v186l493 371v-242l-293 -221l293 -221v-242zM637 506v186l493 371v-242l-292 -221l292 -221v-242z" />
<glyph unicode="&#xac;" horiz-adv-x="1714" d="M217 672v237h1282v-622h-235v385h-1047z" />
<glyph unicode="&#xad;" horiz-adv-x="849" d="M111 444v291h628v-291h-628z" />
<glyph unicode="&#xae;" horiz-adv-x="2048" d="M283 741q0 152 55 285t162 240q109 109 241 164t283 55t283 -55q133 -55 241 -164q106 -106 161.5 -239.5t55.5 -285.5q0 -154 -55 -282q-59 -135 -162 -240q-109 -109 -241 -164t-283 -55t-283 55q-133 55 -241 164q-102 104 -162 240q-55 128 -55 282zM434 741.5 q0 -120.5 43 -225.5q41 -100 131 -190q86 -86 190.5 -129t225.5 -43t225.5 43t190.5 129q90 90 131 190q43 104 43 225t-43 226q-41 100 -131 190t-191 131q-104 43 -225 43t-225 -43q-100 -41 -190.5 -131t-131.5 -190q-43 -105 -43 -225.5zM719 338v836h285q176 0 264 -60 q86 -57 86 -180q0 -84 -54 -141q-52 -55 -147 -74q39 -20 76 -62q39 -43 65 -98l111 -221h-229l-107 213q-33 68 -68 111q-27 33 -57 32h-12v-356h-213zM932 829h35q80 0 118.5 27t38.5 78q0 53 -39 78q-41 25 -118 24h-35v-207z" />
<glyph unicode="&#xaf;" d="M197 1368v188h630v-188h-630z" />
<glyph unicode="&#xb0;" d="M178 1200q0 141 96.5 237.5t237.5 96.5q66 0 127 -25q51 -20 109 -73q49 -53 71 -109q25 -61 25 -126.5t-24.5 -127t-69.5 -106.5q-49 -49 -110.5 -74t-129.5 -25q-141 0 -236 95q-96 96 -96 237zM340 1200q0 -72 49 -121t123 -49t123 49t49 121t-51 123q-49 49 -121 49 q-74 0 -123 -49t-49 -123z" />
<glyph unicode="&#xb1;" horiz-adv-x="1714" d="M217 0v238h1282v-238h-1282zM217 694v236h522v354h238v-354h522v-236h-522v-354h-238v354h-522z" />
<glyph unicode="&#xb2;" horiz-adv-x="894" d="M109 668v153l313 266q66 55 88 93q25 40 25 80q0 51 -37 81.5t-95 30.5q-59 0 -133 -22q-68 -20 -155 -70v186q92 31 168 41q82 12 157 13q160 0 248 -64q90 -66 90 -176q0 -76 -35 -133q-35 -59 -137 -146l-194 -165h370v-168h-673z" />
<glyph unicode="&#xb3;" horiz-adv-x="894" d="M90 698v174q65 -37 129 -55q63 -18 125 -18q92 0 148 32q51 31 51 91q0 63 -54 94q-51 31 -167 31h-74v137h84q98 0 143 24.5t45 73.5q0 47 -39 68q-41 23 -119 22q-53 0 -114 -12q-53 -10 -131 -41v166q57 16 141 26q68 8 162 9q166 0 256 -56q88 -55 88 -161 q0 -70 -45 -117t-127 -66q90 -18 143 -73q51 -53 51 -136q0 -129 -100 -194q-96 -63 -299 -64q-94 0 -156 11q-67 9 -141 34z" />
<glyph unicode="&#xb4;" d="M365 1262l282 376h283l-369 -376h-196z" />
<glyph unicode="&#xb5;" horiz-adv-x="1505" d="M174 -428v1548h361v-651q0 -115 51 -172t151 -57q102 0 154 57q49 55 49 172v651h360v-749q0 -70 16.5 -98.5t55.5 -28.5q20 0 35 6q27 10 35 16v-250q-59 -25 -98 -35t-93 -10q-90 0 -145 37q-59 39 -92 121q-45 -78 -115 -119q-66 -39 -156 -39q-80 0 -127 23 q-53 25 -81 72v-494h-361z" />
<glyph unicode="&#xb6;" horiz-adv-x="1302" d="M129 1071q0 188 129 305t346 117h520v-1690h-190v1543h-189v-1543h-190v846q-205 25 -315.5 135.5t-110.5 286.5z" />
<glyph unicode="&#xb7;" horiz-adv-x="776" d="M209 518v387h360v-387h-360z" />
<glyph unicode="&#xb8;" d="M262 -223q55 -16 92 -23q57 -8 74 -8q55 0 90 23q33 20 33 63q0 29 -21 68q-20 37 -67 100h139q57 -59 86 -115q27 -51 27 -100q0 -95 -62 -141q-59 -45 -188 -45q-47 0 -98 6q-35 4 -105 20v152z" />
<glyph unicode="&#xb9;" horiz-adv-x="894" d="M123 1294v160l229 49h226v-678h204v-157h-641v157h207v521z" />
<glyph unicode="&#xba;" horiz-adv-x="1153" d="M117 1108q0 190 122.5 301t338 111t338 -111t122.5 -301q0 -188 -122.5 -299t-337.5 -111t-338 111t-123 299zM166 373v200h823v-200h-823zM403 1108q0 -119 46 -178q46 -61 128.5 -61.5t129.5 61.5q45 59 45 178q0 115 -45 178.5t-129 63.5t-129.5 -63.5t-45.5 -178.5z " />
<glyph unicode="&#xbb;" horiz-adv-x="1320" d="M193 137v242l292 221l-292 221v242l491 -371v-186zM672 137v242l293 221l-293 221v242l493 -371v-186z" />
<glyph unicode="&#xbc;" horiz-adv-x="2119" d="M100 1294v160l230 49h223v-678h205v-157h-639v157h205v521zM510 -29l934 1549h223l-934 -1549h-223zM1202 162v168l373 506h248v-519h137v-155h-137v-162h-230v162h-391zM1354 317h239v324z" />
<glyph unicode="&#xbd;" horiz-adv-x="2119" d="M100 1294v160l230 49h223v-678h205v-157h-639v157h205v521zM510 -29l934 1549h223l-934 -1549h-223zM1346 0v154l315 268q66 55 88 92q25 39 25 78q0 51 -37 82t-97 31q-57 0 -131 -23q-72 -23 -155 -70v187q96 31 168 41q80 12 155 12q160 0 248 -64q90 -66 90 -174 q0 -74 -37 -135q-39 -63 -135 -145l-194 -166h372v-168h-675z" />
<glyph unicode="&#xbe;" horiz-adv-x="2119" d="M104 698v174q65 -37 129 -55q66 -18 125 -18q92 0 148 32q51 31 51 91q0 63 -53 94t-168 31h-74v137h84q96 0 143 24q45 25 46 74q0 47 -39 68q-41 23 -119 22q-53 0 -115 -12q-53 -10 -131 -41v166q57 16 141 26q68 8 162 9q168 0 256 -55.5t88 -161.5q0 -70 -45 -117 t-127 -66q90 -18 144 -73q51 -53 51 -136q0 -129 -99 -194q-96 -63 -301 -64q-94 0 -155 11q-68 9 -142 34zM510 -29l934 1549h223l-934 -1549h-223zM1202 162v168l373 506h248v-519h137v-155h-137v-162h-230v162h-391zM1354 317h239v324z" />
<glyph unicode="&#xbf;" horiz-adv-x="1187" d="M141 360q0 100 39 177q41 80 133 165l64 58q70 63 90 98t20 84v45h361v-49q0 -80 -33 -143q-31 -61 -141 -164l-64 -58q-59 -55 -82 -98q-27 -49 -26 -92q0 -71 49 -111q47 -39 133 -39q84 0 176 33q84 29 195 101v-314q-98 -35 -221 -61q-96 -20 -193 -21 q-244 0 -373 99q-127 95 -127 290zM487 1137v356h361v-356h-361z" />
<glyph unicode="&#xc0;" horiz-adv-x="1583" d="M10 0l553 1493h459l553 -1493h-387l-94 272h-602l-95 -272h-387zM588 549h409l-204 594zM434 1899h283l198 -264h-196z" />
<glyph unicode="&#xc1;" horiz-adv-x="1583" d="M10 0l553 1493h459l553 -1493h-387l-94 272h-602l-95 -272h-387zM588 549h409l-204 594zM621 1635l198 264h283l-285 -264h-196z" />
<glyph unicode="&#xc2;" horiz-adv-x="1583" d="M10 0l553 1493h459l553 -1493h-387l-94 272h-602l-95 -272h-387zM588 549h409l-204 594zM391 1635l223 264h308l223 -264h-178l-199 161l-199 -161h-178z" />
<glyph unicode="&#xc3;" horiz-adv-x="1583" d="M10 0l553 1493h459l553 -1493h-387l-94 272h-602l-95 -272h-387zM588 549h409l-204 594zM420 1635q0 2 1 7t1 9v14q0 104 53 170t141 66q37 0 74 -12q35 -12 76 -37l59 -39q18 -12 41 -21q25 -8 35 -8q39 0 57.5 31t18.5 86h139q0 -2 -1 -7t-1 -10v-14q0 -104 -53 -169.5 t-141 -65.5q-37 0 -72 12q-47 16 -78 37l-55 35q-2 2 -10 6q-49 27 -74 26q-31 0 -51 -30q-20 -29 -21 -80v-6h-139z" />
<glyph unicode="&#xc4;" horiz-adv-x="1583" d="M10 0l553 1493h459l553 -1493h-387l-94 272h-602l-95 -272h-387zM588 549h409l-204 594zM453 1653v246h235v-246h-235zM848 1653v246h235v-246h-235z" />
<glyph unicode="&#xc5;" horiz-adv-x="1583" d="M10 0l543 1464q-23 37 -35 72q-10 31 -10 80q0 117 84 201t200.5 84t200.5 -84t84 -201q0 -53 -10 -84q-14 -41 -35 -68l543 -1464h-387l-94 272h-602l-95 -272h-387zM588 549h409l-204 594zM662 1616q0 -53 38.5 -92t92 -39t92.5 39t39 92t-39 92t-92.5 39t-92 -39 t-38.5 -92z" />
<glyph unicode="&#xc6;" horiz-adv-x="2220" d="M0 0l625 1493h1425v-291h-653v-278h614v-291h-614v-342h676v-291h-1061v350h-494l-147 -350h-371zM635 627h377v610h-121z" />
<glyph unicode="&#xc7;" horiz-adv-x="1501" d="M102 745.5q0 356.5 217.5 565.5t591.5 209q131 0 240 -27q111 -27 221 -84v-309q-106 72 -211 106q-109 35 -219 35q-207 0 -324 -131q-119 -135 -118 -365q0 -227 118 -362q117 -133 324 -133q111 0 219 35q104 35 211 106v-309q-104 -53 -221 -82q-119 -29 -240 -29 q-375 0 -592 209t-217 565.5zM633 -223q55 -16 92 -23q57 -8 74 -8q55 0 90 23q33 20 33 63q0 29 -21 68q-20 37 -67 100h139q57 -59 86 -115q27 -51 27 -100q0 -95 -62 -141q-59 -45 -188 -45q-47 0 -98 6q-35 4 -105 20v152z" />
<glyph unicode="&#xc8;" horiz-adv-x="1398" d="M188 0v1493h1039v-291h-654v-278h615v-291h-615v-342h676v-291h-1061zM358 1899h283l198 -264h-196z" />
<glyph unicode="&#xc9;" horiz-adv-x="1398" d="M188 0v1493h1039v-291h-654v-278h615v-291h-615v-342h676v-291h-1061zM545 1635l198 264h283l-285 -264h-196z" />
<glyph unicode="&#xca;" horiz-adv-x="1398" d="M188 0v1493h1039v-291h-654v-278h615v-291h-615v-342h676v-291h-1061zM315 1635l223 264h308l223 -264h-178l-199 161l-199 -161h-178z" />
<glyph unicode="&#xcb;" horiz-adv-x="1398" d="M188 0v1493h1039v-291h-654v-278h615v-291h-615v-342h676v-291h-1061zM377 1653v246h235v-246h-235zM772 1653v246h235v-246h-235z" />
<glyph unicode="&#xcc;" horiz-adv-x="761" d="M188 0v1493h385v-1493h-385zM22 1899h283l198 -264h-196z" />
<glyph unicode="&#xcd;" horiz-adv-x="761" d="M188 0v1493h385v-1493h-385zM209 1635l198 264h283l-285 -264h-196z" />
<glyph unicode="&#xce;" horiz-adv-x="761" d="M188 0v1493h385v-1493h-385zM-21 1635l223 264h308l223 -264h-178l-199 161l-199 -161h-178z" />
<glyph unicode="&#xcf;" horiz-adv-x="761" d="M188 0v1493h385v-1493h-385zM41 1653v246h235v-246h-235zM436 1653v246h235v-246h-235z" />
<glyph unicode="&#xd0;" horiz-adv-x="1714" d="M33 621v260h174v612h405q340 0 506 -49q170 -51 287 -164q102 -100 156 -233q51 -129 51 -299q0 -172 -51 -302q-53 -133 -156 -233q-117 -115 -289 -164q-169 -49 -504 -49h-405v621h-174zM592 291h137q233 0 361 117q125 117 124 340q0 219 -124 337q-123 117 -361 117 h-137v-321h235v-260h-235v-330z" />
<glyph unicode="&#xd1;" horiz-adv-x="1712" d="M188 0v1493h430l543 -1024v1024h365v-1493h-430l-543 1024v-1024h-365zM473 1635q0 2 1 7t1 9v14q0 104 53 170t141 66q37 0 74 -12q35 -12 76 -37l59 -39q18 -12 41 -21q25 -8 35 -8q39 0 57.5 31t18.5 86h139q0 -2 -1 -7t-1 -10v-14q0 -104 -53 -169.5t-141 -65.5 q-37 0 -72 12q-47 16 -78 37l-55 35q-2 2 -10 6q-49 27 -74 26q-31 0 -51 -30q-20 -29 -21 -80v-6h-139z" />
<glyph unicode="&#xd2;" horiz-adv-x="1740" d="M102 745.5q0 364.5 205 569.5t563 205q360 0 564 -205q205 -209 204.5 -569.5t-204.5 -569.5q-203 -205 -564 -205q-358 0 -563 205t-205 569.5zM500 745.5q0 -235.5 98 -364.5q100 -131 272 -131q174 0 275 131q96 127 96 364.5t-96 364.5q-100 131 -275 131 q-172 0 -272 -131q-98 -129 -98 -364.5zM512 1899h283l198 -264h-196z" />
<glyph unicode="&#xd3;" horiz-adv-x="1740" d="M102 745.5q0 364.5 205 569.5t563 205q360 0 564 -205q205 -209 204.5 -569.5t-204.5 -569.5q-203 -205 -564 -205q-358 0 -563 205t-205 569.5zM500 745.5q0 -235.5 98 -364.5q100 -131 272 -131q174 0 275 131q96 127 96 364.5t-96 364.5q-100 131 -275 131 q-172 0 -272 -131q-98 -129 -98 -364.5zM699 1635l198 264h283l-285 -264h-196z" />
<glyph unicode="&#xd4;" horiz-adv-x="1740" d="M102 745.5q0 364.5 205 569.5t563 205q360 0 564 -205q205 -209 204.5 -569.5t-204.5 -569.5q-203 -205 -564 -205q-358 0 -563 205t-205 569.5zM500 745.5q0 -235.5 98 -364.5q100 -131 272 -131q174 0 275 131q96 127 96 364.5t-96 364.5q-100 131 -275 131 q-172 0 -272 -131q-98 -129 -98 -364.5zM469 1635l223 264h308l223 -264h-178l-199 161l-199 -161h-178z" />
<glyph unicode="&#xd5;" horiz-adv-x="1740" d="M102 745.5q0 364.5 205 569.5t563 205q360 0 564 -205q205 -209 204.5 -569.5t-204.5 -569.5q-203 -205 -564 -205q-358 0 -563 205t-205 569.5zM500 745.5q0 -235.5 98 -364.5q100 -131 272 -131q174 0 275 131q96 127 96 364.5t-96 364.5q-100 131 -275 131 q-172 0 -272 -131q-98 -129 -98 -364.5zM498 1635q0 2 1 7t1 9v14q0 104 53 170t141 66q37 0 74 -12q35 -12 76 -37l59 -39q18 -12 41 -21q25 -8 35 -8q39 0 57.5 31t18.5 86h139q0 -2 -1 -7t-1 -10v-14q0 -104 -53 -169.5t-141 -65.5q-37 0 -72 12q-47 16 -78 37l-55 35 q-2 2 -10 6q-49 27 -74 26q-31 0 -51 -30q-20 -29 -21 -80v-6h-139z" />
<glyph unicode="&#xd6;" horiz-adv-x="1740" d="M102 745.5q0 364.5 205 569.5t563 205q360 0 564 -205q205 -209 204.5 -569.5t-204.5 -569.5q-203 -205 -564 -205q-358 0 -563 205t-205 569.5zM500 745.5q0 -235.5 98 -364.5q100 -131 272 -131q174 0 275 131q96 127 96 364.5t-96 364.5q-100 131 -275 131 q-172 0 -272 -131q-98 -129 -98 -364.5zM531 1653v246h235v-246h-235zM926 1653v246h235v-246h-235z" />
<glyph unicode="&#xd7;" horiz-adv-x="1714" d="M256 209l434 432l-434 434l168 168l434 -434l434 434l168 -168l-434 -434l434 -432l-168 -168l-434 432l-434 -432z" />
<glyph unicode="&#xd8;" horiz-adv-x="1740" d="M45 39l205 205q-74 102 -111 225q-37 126 -37 276q0 365 205 570t563 205q156 0 279 -37t225 -115l199 199l113 -115l-201 -199q78 -100 114 -227q39 -137 39 -281q0 -360 -204 -569q-203 -205 -564 -205q-156 0 -280 39q-129 41 -230 119l-202 -203zM500 745 q0 -47 8 -120q6 -61 20 -103l605 604q-53 59 -115 86q-68 29 -148 29q-172 0 -272 -131q-98 -129 -98 -365zM604 371q52 -61 117 -92q59 -29 149 -29q174 0 275 131q96 127 96 364q0 49 -8 127q-6 51 -23 107z" />
<glyph unicode="&#xd9;" horiz-adv-x="1662" d="M188 598v895h385v-895q0 -186 60 -264q61 -80 198.5 -80t198.5 80q59 78 60 264v895h385v-895q0 -319 -158 -471q-162 -156 -485.5 -156t-485.5 156q-158 152 -158 471zM473 1899h283l198 -264h-196z" />
<glyph unicode="&#xda;" horiz-adv-x="1662" d="M188 598v895h385v-895q0 -186 60 -264q61 -80 198.5 -80t198.5 80q59 78 60 264v895h385v-895q0 -319 -158 -471q-162 -156 -485.5 -156t-485.5 156q-158 152 -158 471zM660 1635l198 264h283l-285 -264h-196z" />
<glyph unicode="&#xdb;" horiz-adv-x="1662" d="M188 598v895h385v-895q0 -186 60 -264q61 -80 198.5 -80t198.5 80q59 78 60 264v895h385v-895q0 -319 -158 -471q-162 -156 -485.5 -156t-485.5 156q-158 152 -158 471zM430 1635l223 264h308l223 -264h-178l-199 161l-199 -161h-178z" />
<glyph unicode="&#xdc;" horiz-adv-x="1662" d="M188 598v895h385v-895q0 -186 60 -264q61 -80 198.5 -80t198.5 80q59 78 60 264v895h385v-895q0 -319 -158 -471q-162 -156 -485.5 -156t-485.5 156q-158 152 -158 471zM492 1653v246h235v-246h-235zM887 1653v246h235v-246h-235z" />
<glyph unicode="&#xdd;" horiz-adv-x="1482" d="M-20 1493h421l340 -532l340 532h422l-569 -864v-629h-385v629zM570 1635l198 264h283l-285 -264h-196z" />
<glyph unicode="&#xde;" horiz-adv-x="1509" d="M188 0v1493h385v-260h254q281 0 437 -127q154 -127 153.5 -360.5t-153.5 -360.5q-156 -127 -437 -127h-254v-258h-385zM573 537h213q111 0 172.5 55t61.5 153q0 100 -61.5 155.5t-172.5 55.5h-213v-419z" />
<glyph unicode="&#xdf;" horiz-adv-x="1472" d="M172 0v1114q0 221 135 331.5t408 110.5q258 0 395 -112q135 -111 135 -330v-72q-154 -10 -223 -49q-72 -41 -72 -112q0 -37 25 -66q25 -28 117 -80l69 -37q119 -66 170 -149q53 -88 53 -201q0 -186 -114 -282q-113 -94 -346 -95q-66 0 -133 13q-72 12 -144 36v244 q47 -25 113 -41q55 -14 112 -14q72 0 115 37q45 39 45 92q0 47 -28 82q-27 33 -125 88l-70 39q-84 47 -129 117q-43 68 -43 157q0 117 70 195q71 80 215 129q0 86 -50 129q-51 45 -139 45q-98 0 -151 -55q-51 -53 -52 -164v-1100h-358z" />
<glyph unicode="&#xe0;" horiz-adv-x="1380" d="M88 336q0 197 135 289t426 92h211v28q0 86 -67 125q-66 39 -209 39q-111 0 -213 -22q-92 -20 -185 -70v273q113 27 232 43q109 14 231 14q305 0 438.5 -119t133.5 -389v-639h-361v166q-70 -100 -162 -148q-90 -47 -219 -47q-176 0 -282 101q-109 102 -109 264zM449 354 q0 -68 45 -106.5t127 -38.5q104 0 170 72q70 76 69 182v41h-186q-113 0 -168 -37q-57 -39 -57 -113zM280 1638h283l282 -376h-196z" />
<glyph unicode="&#xe1;" horiz-adv-x="1380" d="M88 336q0 197 135 289t426 92h211v28q0 86 -67 125q-66 39 -209 39q-111 0 -213 -22q-92 -20 -185 -70v273q113 27 232 43q109 14 231 14q305 0 438.5 -119t133.5 -389v-639h-361v166q-70 -100 -162 -148q-90 -47 -219 -47q-176 0 -282 101q-109 102 -109 264zM449 354 q0 -68 45 -106.5t127 -38.5q104 0 170 72q70 76 69 182v41h-186q-113 0 -168 -37q-57 -39 -57 -113zM551 1262l282 376h283l-369 -376h-196z" />
<glyph unicode="&#xe2;" horiz-adv-x="1380" d="M88 336q0 197 135 289t426 92h211v28q0 86 -67 125q-66 39 -209 39q-111 0 -213 -22q-92 -20 -185 -70v273q113 27 232 43q109 14 231 14q305 0 438.5 -119t133.5 -389v-639h-361v166q-70 -100 -162 -148q-90 -47 -219 -47q-176 0 -282 101q-109 102 -109 264zM449 354 q0 -68 45 -106.5t127 -38.5q104 0 170 72q70 76 69 182v41h-186q-113 0 -168 -37q-57 -39 -57 -113zM321 1262l256 376h242l256 -376h-178l-199 225l-199 -225h-178z" />
<glyph unicode="&#xe3;" horiz-adv-x="1380" d="M88 336q0 197 135 289t426 92h211v28q0 86 -67 125q-66 39 -209 39q-111 0 -213 -22q-92 -20 -185 -70v273q113 27 232 43q109 14 231 14q305 0 438.5 -119t133.5 -389v-639h-361v166q-70 -100 -162 -148q-90 -47 -219 -47q-176 0 -282 101q-109 102 -109 264zM449 354 q0 -68 45 -106.5t127 -38.5q104 0 170 72q70 76 69 182v41h-186q-113 0 -168 -37q-57 -39 -57 -113zM350 1309q0 139 51 211q51 74 145 73q29 0 72 -14q39 -12 78 -43l61 -43q10 -6 41 -23q16 -8 33 -8q35 0 55 31q20 29 21 90v8h139q0 -139 -51 -211q-51 -74 -145 -73 q-37 0 -70 12q-37 12 -80 45l-55 37q-2 2 -10 6q-47 31 -72 31q-37 0 -55.5 -31t-18.5 -90v-8h-139z" />
<glyph unicode="&#xe4;" horiz-adv-x="1380" d="M88 336q0 197 135 289t426 92h211v28q0 86 -67 125q-66 39 -209 39q-111 0 -213 -22q-92 -20 -185 -70v273q113 27 232 43q109 14 231 14q305 0 438.5 -119t133.5 -389v-639h-361v166q-70 -100 -162 -148q-90 -47 -219 -47q-176 0 -282 101q-109 102 -109 264zM449 354 q0 -68 45 -106.5t127 -38.5q104 0 170 72q70 76 69 182v41h-186q-113 0 -168 -37q-57 -39 -57 -113zM383 1339v246h235v-246h-235zM778 1339v246h235v-246h-235z" />
<glyph unicode="&#xe5;" horiz-adv-x="1380" d="M88 336q0 197 135 289t426 92h211v28q0 86 -67 125q-66 39 -209 39q-111 0 -213 -22q-92 -20 -185 -70v273q113 27 232 43q109 14 231 14q305 0 438.5 -119t133.5 -389v-639h-361v166q-70 -100 -162 -148q-90 -47 -219 -47q-176 0 -282 101q-109 102 -109 264zM449 354 q0 -68 45 -106.5t127 -38.5q104 0 170 72q70 76 69 182v41h-186q-113 0 -168 -37q-57 -39 -57 -113zM413 1534q0 117 84 201t201 84t201 -84t84 -201t-84 -201t-201 -84t-201 84t-84 201zM567 1534q0 -55 39 -92q43 -39 92 -39q55 0 92 39q39 43 39 92q0 53 -39 92t-92 39 q-55 0 -92 -39q-39 -43 -39 -92z" />
<glyph unicode="&#xe6;" horiz-adv-x="2144" d="M88 336q0 197 135 289t426 92h211v28q0 86 -67 125q-66 39 -209 39q-111 0 -213 -22q-92 -20 -185 -70v273q121 29 230 43q102 14 209 14q154 0 258 -39q115 -43 180 -117q77 77 178 117q98 39 225 39q264 0 424 -160q158 -158 158 -424v-102h-838q14 -125 90 -188.5 t220 -63.5q115 0 231 33q111 31 244 102v-276q-117 -45 -254 -72q-129 -25 -254 -25q-176 0 -311.5 53.5t-204.5 153.5q-102 -109 -213 -158t-250 -49q-194 0 -307 99q-113 98 -113 266zM449 354q0 -68 45 -106.5t127 -38.5q104 0 170 72q70 76 69 182v41h-186 q-113 0 -168 -37q-57 -39 -57 -113zM1217 682h462q0 100 -59 163.5t-156 63.5q-102 0 -167.5 -59t-79.5 -168z" />
<glyph unicode="&#xe7;" horiz-adv-x="1212" d="M88 559q0 276 170 432t475 156q82 0 174 -17q88 -16 170 -45v-292q-74 49 -147.5 73.5t-151.5 24.5q-150 0 -233.5 -88t-83.5 -244t84 -244t233 -88q83 0 160 25q74 23 139 74v-293q-88 -33 -170 -47q-80 -14 -174 -15q-305 0 -475 156t-170 432zM446 -223q55 -16 92 -23 q57 -8 74 -8q55 0 90 23q33 20 33 63q0 29 -21 68q-20 37 -67 100h139q57 -59 86 -115q27 -51 27 -100q0 -95 -62 -141q-59 -45 -188 -45q-47 0 -98 6q-35 4 -105 20v152z" />
<glyph unicode="&#xe8;" horiz-adv-x="1388" d="M88 559q0 273 166 430q168 158 455 158q262 0 421.5 -160t159.5 -424v-102h-837q12 -121 92 -189q76 -63 217 -63q115 0 231 33q111 31 244 102v-276q-113 -45 -254 -72q-127 -25 -254 -25q-304 0 -473 154q-168 153 -168 434zM457 682h465q0 100 -59.5 163.5 t-155.5 63.5q-102 0 -168 -59q-68 -62 -82 -168zM311 1638h283l282 -376h-196z" />
<glyph unicode="&#xe9;" horiz-adv-x="1388" d="M88 559q0 273 166 430q168 158 455 158q262 0 421.5 -160t159.5 -424v-102h-837q12 -121 92 -189q76 -63 217 -63q115 0 231 33q111 31 244 102v-276q-113 -45 -254 -72q-127 -25 -254 -25q-304 0 -473 154q-168 153 -168 434zM457 682h465q0 100 -59.5 163.5 t-155.5 63.5q-102 0 -168 -59q-68 -62 -82 -168zM582 1262l282 376h283l-369 -376h-196z" />
<glyph unicode="&#xea;" horiz-adv-x="1388" d="M88 559q0 273 166 430q168 158 455 158q262 0 421.5 -160t159.5 -424v-102h-837q12 -121 92 -189q76 -63 217 -63q115 0 231 33q111 31 244 102v-276q-113 -45 -254 -72q-127 -25 -254 -25q-304 0 -473 154q-168 153 -168 434zM457 682h465q0 100 -59.5 163.5 t-155.5 63.5q-102 0 -168 -59q-68 -62 -82 -168zM352 1262l256 376h242l256 -376h-178l-199 225l-199 -225h-178z" />
<glyph unicode="&#xeb;" horiz-adv-x="1388" d="M88 559q0 273 166 430q168 158 455 158q262 0 421.5 -160t159.5 -424v-102h-837q12 -121 92 -189q76 -63 217 -63q115 0 231 33q111 31 244 102v-276q-113 -45 -254 -72q-127 -25 -254 -25q-304 0 -473 154q-168 153 -168 434zM457 682h465q0 100 -59.5 163.5 t-155.5 63.5q-102 0 -168 -59q-68 -62 -82 -168zM414 1339v246h235v-246h-235zM809 1339v246h235v-246h-235z" />
<glyph unicode="&#xec;" horiz-adv-x="700" d="M172 0v1120h358v-1120h-358zM-43 1638h283l282 -376h-196z" />
<glyph unicode="&#xed;" horiz-adv-x="700" d="M172 0v1120h358v-1120h-358zM228 1262l282 376h283l-369 -376h-196z" />
<glyph unicode="&#xee;" horiz-adv-x="700" d="M172 0v1120h358v-1120h-358zM-2 1262l256 376h242l256 -376h-178l-199 225l-199 -225h-178z" />
<glyph unicode="&#xef;" horiz-adv-x="700" d="M172 0v1120h358v-1120h-358zM60 1339v246h235v-246h-235zM455 1339v246h235v-246h-235z" />
<glyph unicode="&#xf0;" horiz-adv-x="1406" d="M88 559q0 231 150 363q152 133 415 133q43 0 84 -6q43 -6 76 -21l-190 219l-373 -119l-37 129l307 97l-188 202h352l111 -116l376 114l35 -129l-315 -96l205 -229q119 -137 170 -264q53 -131 53 -277q0 -276 -162 -432t-452.5 -156t-452.5 156q-164 158 -164 432z M461 543q0 -147 65.5 -231.5t178.5 -84.5q119 0 180 86t61 246q0 43 -6 90q-4 35 -20 94q-61 31 -109 41q-55 12 -106 13q-117 0 -180.5 -65.5t-63.5 -188.5z" />
<glyph unicode="&#xf1;" horiz-adv-x="1456" d="M172 0v1120h358v-164q78 96 172.5 143.5t200.5 47.5q195 0 295 -119t100 -346v-682h-360v111v411q0 145 -6 201q-6 53 -23 80q-25 39 -57 55q-37 18 -82 19q-111 0 -176 -86q-63 -84 -64 -240v-551h-358zM406 1309q0 139 51 211q51 74 145 73q29 0 72 -14q39 -12 78 -43 l61 -43q10 -6 41 -23q16 -8 33 -8q35 0 55 31q20 29 21 90v8h139q0 -139 -51 -211q-51 -74 -145 -73q-37 0 -70 12q-37 12 -80 45l-55 37q-2 2 -10 6q-47 31 -72 31q-37 0 -55.5 -31t-18.5 -90v-8h-139z" />
<glyph unicode="&#xf2;" horiz-adv-x="1406" d="M88 559q0 274 164 432q162 156 452.5 156t452.5 -155.5t162 -432t-162 -432.5t-452.5 -156t-452.5 156q-164 158 -164 432zM461 559q0 -158 63 -246q61 -86 180 -86t180.5 86t61.5 246t-61.5 246t-180 86t-180.5 -86q-63 -88 -63 -246zM309 1638h283l282 -376h-196z" />
<glyph unicode="&#xf3;" horiz-adv-x="1406" d="M88 559q0 274 164 432q162 156 452.5 156t452.5 -155.5t162 -432t-162 -432.5t-452.5 -156t-452.5 156q-164 158 -164 432zM461 559q0 -158 63 -246q61 -86 180 -86t180.5 86t61.5 246t-61.5 246t-180 86t-180.5 -86q-63 -88 -63 -246zM580 1262l282 376h283l-369 -376 h-196z" />
<glyph unicode="&#xf4;" horiz-adv-x="1406" d="M88 559q0 274 164 432q162 156 452.5 156t452.5 -155.5t162 -432t-162 -432.5t-452.5 -156t-452.5 156q-164 158 -164 432zM461 559q0 -158 63 -246q61 -86 180 -86t180.5 86t61.5 246t-61.5 246t-180 86t-180.5 -86q-63 -88 -63 -246zM350 1262l256 376h242l256 -376 h-178l-199 225l-199 -225h-178z" />
<glyph unicode="&#xf5;" horiz-adv-x="1406" d="M88 559q0 274 164 432q162 156 452.5 156t452.5 -155.5t162 -432t-162 -432.5t-452.5 -156t-452.5 156q-164 158 -164 432zM461 559q0 -158 63 -246q61 -86 180 -86t180.5 86t61.5 246t-61.5 246t-180 86t-180.5 -86q-63 -88 -63 -246zM379 1309q0 139 51 211 q51 74 145 73q29 0 72 -14q39 -12 78 -43l61 -43q10 -6 41 -23q16 -8 33 -8q35 0 55 31q20 29 21 90v8h139q0 -139 -51 -211q-51 -74 -145 -73q-37 0 -70 12q-37 12 -80 45l-55 37q-2 2 -10 6q-47 31 -72 31q-37 0 -55.5 -31t-18.5 -90v-8h-139z" />
<glyph unicode="&#xf6;" horiz-adv-x="1406" d="M88 559q0 274 164 432q162 156 452.5 156t452.5 -155.5t162 -432t-162 -432.5t-452.5 -156t-452.5 156q-164 158 -164 432zM461 559q0 -158 63 -246q61 -86 180 -86t180.5 86t61.5 246t-61.5 246t-180 86t-180.5 -86q-63 -88 -63 -246zM412 1339v246h235v-246h-235z M807 1339v246h235v-246h-235z" />
<glyph unicode="&#xf7;" horiz-adv-x="1714" d="M217 524v236h1282v-236h-1282zM705 86v309h307v-309h-307zM705 889v309h307v-309h-307z" />
<glyph unicode="&#xf8;" horiz-adv-x="1406" d="M78 0l145 158q-66 76 -100 178q-35 104 -35 223q0 274 164 432q162 156 453 156q102 0 196 -23q88 -20 164 -65l147 158l109 -101l-141 -149q72 -80 104 -181q35 -104 35 -227q0 -276 -162 -432t-452 -156q-102 0 -199 23q-90 20 -168 67l-148 -155zM461 559q0 -29 4 -74 q2 -23 10 -59l381 410q-29 29 -68 41q-43 14 -83 14q-119 0 -181 -86q-63 -88 -63 -246zM547 287q29 -29 71 -45q37 -14 87 -15q119 0 180 86t61 246q0 31 -4 76q-2 29 -10 63z" />
<glyph unicode="&#xf9;" horiz-adv-x="1456" d="M160 436v684h360v-112q0 -27 -1 -103t-1 -125v-184q0 -137 6 -195t25 -86q25 -39 57 -55q37 -18 82 -18q111 0 176 86q63 84 64 239v553h358v-1120h-358v162q-76 -94 -172 -144q-90 -47 -199 -47q-195 0 -295 119q-102 121 -102 346zM336 1638h283l282 -376h-196z" />
<glyph unicode="&#xfa;" horiz-adv-x="1456" d="M160 436v684h360v-112q0 -27 -1 -103t-1 -125v-184q0 -137 6 -195t25 -86q25 -39 57 -55q37 -18 82 -18q111 0 176 86q63 84 64 239v553h358v-1120h-358v162q-76 -94 -172 -144q-90 -47 -199 -47q-195 0 -295 119q-102 121 -102 346zM607 1262l282 376h283l-369 -376 h-196z" />
<glyph unicode="&#xfb;" horiz-adv-x="1456" d="M160 436v684h360v-112q0 -27 -1 -103t-1 -125v-184q0 -137 6 -195t25 -86q25 -39 57 -55q37 -18 82 -18q111 0 176 86q63 84 64 239v553h358v-1120h-358v162q-76 -94 -172 -144q-90 -47 -199 -47q-195 0 -295 119q-102 121 -102 346zM377 1262l256 376h242l256 -376h-178 l-199 225l-199 -225h-178z" />
<glyph unicode="&#xfc;" horiz-adv-x="1456" d="M160 436v684h360v-112q0 -27 -1 -103t-1 -125v-184q0 -137 6 -195t25 -86q25 -39 57 -55q37 -18 82 -18q111 0 176 86q63 84 64 239v553h358v-1120h-358v162q-76 -94 -172 -144q-90 -47 -199 -47q-195 0 -295 119q-102 121 -102 346zM439 1339v246h235v-246h-235z M834 1339v246h235v-246h-235z" />
<glyph unicode="&#xfd;" horiz-adv-x="1333" d="M25 1120h358l301 -760l256 760h358l-471 -1226q-70 -186 -165 -261q-98 -76 -250 -75h-207v235h112q86 0 132 29q43 29 65 104l10 31zM521 1262l282 376h283l-369 -376h-196z" />
<glyph unicode="&#xfe;" horiz-adv-x="1464" d="M172 -426v1982h358v-600q72 96 164 144q90 47 207 47q209 0 340 -164q133 -168 133 -424t-133 -424q-131 -164 -340 -164q-117 0 -207 47q-92 47 -164 144v-588h-358zM530 559q0 -158 62 -244q59 -84 176 -84q115 0 176 84q59 80 59.5 244t-59.5 244q-61 84 -176 84 q-117 0 -176 -84q-62 -86 -62 -244z" />
<glyph unicode="&#xff;" horiz-adv-x="1333" d="M25 1120h358l301 -760l256 760h358l-471 -1226q-70 -186 -165 -261q-98 -76 -250 -75h-207v235h112q86 0 132 29q43 29 65 104l10 31zM353 1339v246h235v-246h-235zM748 1339v246h235v-246h-235z" />
<glyph unicode="&#x106;" horiz-adv-x="1501" d="M102 745.5q0 356.5 217.5 565.5t591.5 209q131 0 240 -27q111 -27 221 -84v-309q-106 72 -211 106q-109 35 -219 35q-207 0 -324 -131q-119 -135 -118 -365q0 -227 118 -362q117 -133 324 -133q111 0 219 35q104 35 211 106v-309q-104 -53 -221 -82q-119 -29 -240 -29 q-375 0 -592 209t-217 565.5zM723 1635l198 264h283l-285 -264h-196z" />
<glyph unicode="&#x107;" horiz-adv-x="1212" d="M88 559q0 276 170 432t475 156q82 0 174 -17q88 -16 170 -45v-292q-74 49 -147.5 73.5t-151.5 24.5q-150 0 -233.5 -88t-83.5 -244t84 -244t233 -88q83 0 160 25q74 23 139 74v-293q-88 -33 -170 -47q-80 -14 -174 -15q-305 0 -475 156t-170 432zM576 1262l282 376h283 l-369 -376h-196z" />
<glyph unicode="&#x10c;" horiz-adv-x="1501" d="M102 745.5q0 356.5 217.5 565.5t591.5 209q131 0 240 -27q111 -27 221 -84v-309q-106 72 -211 106q-109 35 -219 35q-207 0 -324 -131q-119 -135 -118 -365q0 -227 118 -362q117 -133 324 -133q111 0 219 35q104 35 211 106v-309q-104 -53 -221 -82q-119 -29 -240 -29 q-375 0 -592 209t-217 565.5zM493 1899h178l199 -162l199 162h178l-223 -264h-308z" />
<glyph unicode="&#x10d;" horiz-adv-x="1212" d="M88 559q0 276 170 432t475 156q82 0 174 -17q88 -16 170 -45v-292q-74 49 -147.5 73.5t-151.5 24.5q-150 0 -233.5 -88t-83.5 -244t84 -244t233 -88q83 0 160 25q74 23 139 74v-293q-88 -33 -170 -47q-80 -14 -174 -15q-305 0 -475 156t-170 432zM346 1638h178l199 -227 l199 227h178l-256 -376h-242z" />
<glyph unicode="&#x111;" horiz-adv-x="1464" d="M92 559q0 256 133 424q131 164 340 164q115 0 205 -47q92 -47 164 -144v281h-326v205h326v114h360v-114h154v-205h-154v-1237h-360v162q-74 -98 -164 -146q-88 -45 -205 -45q-209 0 -340 164q-133 168 -133 424zM463 559q0 -162 61 -244q61 -84 174 -84q115 0 176 84 q59 80 59.5 244t-59.5 244q-61 84 -176 84q-113 0 -174 -84q-61 -82 -61 -244z" />
<glyph unicode="&#x11e;" horiz-adv-x="1679" d="M102 745q0 360 222 568q223 207 608 207q154 0 285 -27q137 -29 258 -84v-309q-133 76 -248 106q-127 35 -248 35q-229 0 -354 -129q-125 -127 -125 -367q0 -236 121 -366q121 -129 340 -129q43 0 112 8q49 6 92 23v290h-235v258h600v-718q-143 -70 -299 -105 q-158 -35 -320 -35q-375 0 -592 209t-217 565zM481 1899h143q20 -61 68 -90q49 -31 125 -31t125 31q47 29 68 90h143q-14 -129 -103 -197q-86 -68 -233 -67q-147 0 -233 67q-89 68 -103 197z" />
<glyph unicode="&#x11f;" horiz-adv-x="1464" d="M92 573q0 254 133 412q135 160 340 160q117 0 205 -45q90 -47 164 -146v166h360v-1007q0 -272 -170 -412q-174 -143 -495 -143q-98 0 -203 16q-98 15 -197 49v279q84 -49 185 -80q86 -27 180 -27q174 0 258 78q82 76 82 240v77q-74 -98 -164 -145q-88 -45 -205 -45 q-205 0 -340 162q-133 159 -133 411zM463 573q0 -156 59 -233q61 -80 176 -80q113 0 174 82q61 84 61.5 231.5t-61.5 231.5q-61 82 -173.5 82t-174.5 -82q-61 -85 -61 -232zM397 1606h143q12 -72 60 -107q49 -37 133 -37t133 37q47 35 60 107h143q-6 -141 -92 -220 q-88 -78 -244 -77.5t-244 77.5q-86 79 -92 220z" />
<glyph unicode="&#x130;" horiz-adv-x="761" d="M188 0v1493h385v-1493h-385zM219 1653v246h274v-246h-274z" />
<glyph unicode="&#x131;" horiz-adv-x="700" d="M172 0v1120h358v-1120h-358z" />
<glyph unicode="&#x141;" horiz-adv-x="1314" d="M-92 608l291 197v688h385v-416l254 185l143 -193l-397 -272v-506h676v-291h-1061v524l-148 -106z" />
<glyph unicode="&#x142;" horiz-adv-x="759" d="M-37 709l236 163v684h360v-501l129 88l111 -154l-240 -164v-825h-360v641l-125 -86z" />
<glyph unicode="&#x152;" horiz-adv-x="2387" d="M102 748q0 358 238 552.5t678 194.5q2 0 14 -1t21 -1h37h1128v-291h-653v-278h614v-291h-614v-342h676v-291h-1151h-37q-8 0 -20.5 -1t-14.5 -1q-440 0 -678 195t-238 555zM500 747.5q0 -229.5 143 -341.5q145 -115 432 -115h105v911h-105q-289 0 -432 -112.5t-143 -342z " />
<glyph unicode="&#x153;" horiz-adv-x="2240" d="M88 559q0 274 164 432q162 156 453 156q131 0 237 -41q102 -39 184 -127q86 88 181 127q100 41 235 41q276 0 438 -158t162 -426v-102h-837q12 -121 92 -189q76 -63 217 -63q115 0 231 33q111 31 244 102v-276q-117 -45 -254 -72q-129 -25 -254 -25q-162 0 -272 41 q-106 39 -179 127q-86 -86 -188 -127t-237 -41q-291 0 -453 156q-164 158 -164 432zM461 559q0 -158 63 -246q61 -86 180 -86t180.5 86t61.5 246t-61.5 246t-180 86t-180.5 -86q-63 -88 -63 -246zM1309 682h465q0 100 -59.5 163.5t-155.5 63.5q-102 0 -168 -59 q-68 -62 -82 -168z" />
<glyph unicode="&#x15e;" horiz-adv-x="1474" d="M147 1057q0 225 143.5 344t414.5 119q125 0 253 -19q131 -18 269 -55v-316q-119 53 -240 82t-221 29q-137 0 -205 -39q-66 -37 -65 -117q0 -59 45 -94q41 -33 161 -57l164 -33q248 -49 355 -151q104 -102 104 -291q0 -246 -147 -367q-150 -121 -447 -121 q-145 0 -284.5 27t-286.5 80v325q135 -72 276 -114q129 -39 258 -39q125 0 192.5 43t67.5 119q0 72 -45 108.5t-182 67.5l-149 33q-223 49 -328 153q-103 103 -103 283zM483 -223q55 -16 92 -23q57 -8 74 -8q55 0 90 23q33 20 33 63q0 29 -21 68q-20 37 -67 100h139 q57 -59 86 -115q27 -51 27 -100q0 -95 -62 -141q-59 -45 -188 -45q-47 0 -98 6q-35 4 -105 20v152z" />
<glyph unicode="&#x15f;" horiz-adv-x="1218" d="M106 797q0 180 121 264q123 86 375 86q109 0 209 -14q94 -14 236 -48v-272q-104 45 -222 72q-108 25 -202 24q-98 0 -152 -26q-49 -25 -49 -78q0 -43 37 -66q39 -23 135 -34l63 -9q272 -33 369 -114q96 -80 96 -252q0 -178 -133 -268.5t-393 -90.5q-123 0 -229.5 16.5 t-243.5 53.5v272q113 -55 219 -77q123 -27 229 -27q104 0 157.5 28.5t53.5 86.5q0 47 -36.5 71.5t-145.5 36.5l-63 8q-238 31 -334.5 111t-96.5 246zM360 -223q55 -16 92 -23q57 -8 74 -8q55 0 90 23q33 20 33 63q0 29 -21 68q-20 37 -67 100h139q57 -59 86 -115 q27 -51 27 -100q0 -95 -62 -141q-59 -45 -188 -45q-47 0 -98 6q-35 4 -105 20v152z" />
<glyph unicode="&#x160;" horiz-adv-x="1474" d="M147 1057q0 225 143.5 344t414.5 119q125 0 253 -19q131 -18 269 -55v-316q-119 53 -240 82t-221 29q-137 0 -205 -39q-66 -37 -65 -117q0 -59 45 -94q41 -33 161 -57l164 -33q248 -49 355 -151q104 -102 104 -291q0 -246 -147 -367q-150 -121 -447 -121 q-145 0 -284.5 27t-286.5 80v325q135 -72 276 -114q129 -39 258 -39q125 0 192.5 43t67.5 119q0 72 -45 108.5t-182 67.5l-149 33q-223 49 -328 153q-103 103 -103 283zM336 1899h178l199 -162l199 162h178l-223 -264h-308z" />
<glyph unicode="&#x161;" horiz-adv-x="1218" d="M106 797q0 180 121 264q123 86 375 86q109 0 209 -14q94 -14 236 -48v-272q-104 45 -222 72q-108 25 -202 24q-98 0 -152 -26q-49 -25 -49 -78q0 -43 37 -66q39 -23 135 -34l63 -9q272 -33 369 -114q96 -80 96 -252q0 -178 -133 -268.5t-393 -90.5q-123 0 -229.5 16.5 t-243.5 53.5v272q113 -55 219 -77q123 -27 229 -27q104 0 157.5 28.5t53.5 86.5q0 47 -36.5 71.5t-145.5 36.5l-63 8q-238 31 -334.5 111t-96.5 246zM233 1638h178l199 -227l199 227h178l-256 -376h-242z" />
<glyph unicode="&#x178;" horiz-adv-x="1482" d="M-20 1493h421l340 -532l340 532h422l-569 -864v-629h-385v629zM402 1653v246h235v-246h-235zM797 1653v246h235v-246h-235z" />
<glyph unicode="&#x17d;" horiz-adv-x="1484" d="M92 0v233l801 969h-778v291h1255v-233l-801 -969h824v-291h-1301zM342 1899h178l199 -162l199 162h178l-223 -264h-308z" />
<glyph unicode="&#x17e;" horiz-adv-x="1191" d="M92 0v250l590 614h-565v256h977v-250l-590 -614h590v-256h-1002zM219 1638h178l199 -227l199 227h178l-256 -376h-242z" />
<glyph unicode="&#x192;" horiz-adv-x="1423" d="M6 -131q47 -29 88 -43t84 -14q90 0 139 57q51 59 78 199l117 589h-242v238h289l51 252q43 207 156 307q115 102 303 102q59 0 131 -10q70 -10 135 -30v-254q-47 29 -88 43t-84 14q-90 0 -139 -57q-51 -59 -78 -199l-33 -168h285v-238h-332l-133 -673q-39 -203 -155 -308 q-115 -102 -306 -102q-55 0 -131 10q-68 9 -135 31v254z" />
<glyph unicode="&#x2c6;" d="M135 1262l256 376h242l256 -376h-178l-199 225l-199 -225h-178z" />
<glyph unicode="&#x2c7;" d="M135 1638h178l199 -227l199 227h178l-256 -376h-242z" />
<glyph unicode="&#x2d8;" d="M176 1606h143q12 -72 60 -107q49 -37 133 -37t133 37q47 35 60 107h143q-6 -141 -92 -220q-88 -78 -244 -77.5t-244 77.5q-86 79 -92 220z" />
<glyph unicode="&#x2d9;" d="M375 1339v246h274v-246h-274z" />
<glyph unicode="&#x2da;" d="M227 1534q0 117 84 201t201 84t201 -84t84 -201t-84 -201t-201 -84t-201 84t-84 201zM381 1534q0 -55 39 -92q43 -39 92 -39q55 0 92 39q39 43 39 92q0 53 -39 92t-92 39q-55 0 -92 -39q-39 -43 -39 -92z" />
<glyph unicode="&#x2db;" d="M342 -223q0 55 27 108q29 55 84 115h141q-55 -76 -70 -104q-18 -37 -18 -62q0 -41 29 -63q31 -25 79 -25q25 0 78 8q33 4 78 23v-156q-31 -6 -102 -16q-45 -6 -88 -6q-113 0 -177 47q-61 47 -61 131z" />
<glyph unicode="&#x2dc;" d="M164 1309q0 139 51 211q51 74 145 73q29 0 72 -14q39 -12 78 -43l61 -43q10 -6 41 -23q16 -8 33 -8q35 0 55 31q20 29 21 90v8h139q0 -139 -51 -211q-51 -74 -145 -73q-37 0 -70 12q-37 12 -80 45l-55 37q-2 2 -10 6q-47 31 -72 31q-37 0 -55.5 -31t-18.5 -90v-8h-139z " />
<glyph unicode="&#x2dd;" d="M193 1262l194 376h217l-248 -376h-163zM535 1262l215 376h231l-272 -376h-174z" />
<glyph unicode="&#x3a9;" horiz-adv-x="1574" d="M55 0v256h291q-123 117 -186 260q-61 139 -62 303q0 313 188.5 501.5t500 188.5t500 -188t188.5 -502q0 -164 -62 -303q-63 -143 -186 -260h291v-256h-609v291q129 88 193 217q66 135 65 297q0 201 -102 319q-102 117 -278.5 117t-278.5 -117q-102 -119 -102 -319 q0 -162 65 -297q63 -129 193 -217v-291h-609z" />
<glyph unicode="&#x3c0;" horiz-adv-x="1318" d="M-35 737q28 200 123 277q96 78 311 78h955l-39 -224h-176l-154 -868h-287l152 868h-238l-151 -868h-287l152 868h-25q-55 0 -84 -30q-31 -33 -39 -101h-213z" />
<glyph unicode="&#x2000;" horiz-adv-x="948" />
<glyph unicode="&#x2001;" horiz-adv-x="1900" />
<glyph unicode="&#x2002;" horiz-adv-x="948" />
<glyph unicode="&#x2003;" horiz-adv-x="1900" />
<glyph unicode="&#x2004;" horiz-adv-x="632" />
<glyph unicode="&#x2005;" horiz-adv-x="473" />
<glyph unicode="&#x2006;" horiz-adv-x="315" />
<glyph unicode="&#x2007;" horiz-adv-x="315" />
<glyph unicode="&#x2008;" horiz-adv-x="235" />
<glyph unicode="&#x2009;" horiz-adv-x="378" />
<glyph unicode="&#x200a;" horiz-adv-x="104" />
<glyph unicode="&#x2010;" horiz-adv-x="849" d="M111 444v291h628v-291h-628z" />
<glyph unicode="&#x2011;" horiz-adv-x="849" d="M111 444v291h628v-291h-628z" />
<glyph unicode="&#x2012;" horiz-adv-x="849" d="M111 444v291h628v-291h-628z" />
<glyph unicode="&#x2013;" d="M0 432v258h1024v-258h-1024z" />
<glyph unicode="&#x2014;" horiz-adv-x="2048" d="M0 432v258h2048v-258h-2048z" />
<glyph unicode="&#x2018;" horiz-adv-x="776" d="M211 856v285l227 352h213l-100 -352v-285h-340z" />
<glyph unicode="&#x2019;" horiz-adv-x="776" d="M129 856l100 352v285h340v-285l-227 -352h-213z" />
<glyph unicode="&#x201a;" horiz-adv-x="776" d="M147 -250l101 352v285h340v-285l-230 -352h-211z" />
<glyph unicode="&#x201c;" horiz-adv-x="1345" d="M211 856v285l227 352h213l-100 -352v-285h-340zM717 856v283l227 354h213l-100 -354v-283h-340z" />
<glyph unicode="&#x201d;" horiz-adv-x="1345" d="M188 856l101 352v285h340v-285l-228 -352h-213zM694 856l101 350v287h340v-287l-228 -350h-213z" />
<glyph unicode="&#x201e;" horiz-adv-x="1345" d="M147 -250l101 352v285h340v-285l-230 -352h-211zM653 -250l101 350v287h340v-287l-228 -350h-213z" />
<glyph unicode="&#x2020;" d="M53 874v238h289v381h330v-381h291v-238h-291v-1071h-330v1071h-289z" />
<glyph unicode="&#x2021;" d="M51 184v238h291v452h-289v238h289v381h330v-381h291v-238h-291v-452h291v-238h-291v-381h-330v381h-291z" />
<glyph unicode="&#x2022;" horiz-adv-x="1308" d="M295 762q0 78 27 139q31 70 77 115q49 49 117 78q61 27 139 26q76 0 138 -26q68 -29 116.5 -78t77.5 -117q27 -61 27 -137q0 -78 -27 -139q-29 -68 -78 -117t-116 -78q-61 -27 -139.5 -27t-139.5 27q-63 27 -115 78q-51 53 -77 117q-27 61 -27 139z" />
<glyph unicode="&#x2026;" horiz-adv-x="2048" d="M162 0v387h360v-387h-360zM844 0v387h360v-387h-360zM1526 0v387h360v-387h-360z" />
<glyph unicode="&#x202f;" horiz-adv-x="378" />
<glyph unicode="&#x2030;" horiz-adv-x="2947" d="M66 1114q0 190 106 297q109 109 293 109t293 -109q106 -106 106 -297q0 -193 -106 -299q-109 -109 -293 -108.5t-293 108.5q-106 106 -106 299zM315 1114q0 -119 39 -178q40 -61 111 -62q71 0 110 62q39 59 39 178q0 117 -39 176q-40 61 -110.5 61.5t-110.5 -61.5 q-39 -59 -39 -176zM449 -29l933 1549h222l-934 -1549h-221zM1186 379q0 188 108.5 296.5t293 108.5t292.5 -108q106 -106 106.5 -297t-106 -299.5t-293 -108.5t-293.5 109q-108 113 -108 299zM1438 379q0 -117 39 -176q40 -61 110 -62q74 0 111 61.5t37 176.5q0 117 -39 176 q-41 61 -109 61q-71 0 -110 -61q-39 -59 -39 -176zM2101 379q0 190 107 297q109 109 295 108q184 0 293 -108q106 -106 106 -297t-106.5 -299.5t-293 -108.5t-292.5 109q-109 113 -109 299zM2353 379q0 -117 39 -176q40 -61 111 -62q72 0 108 62q39 66 39 176t-39 176 q-37 61 -108 61t-111 -61q-39 -59 -39 -176z" />
<glyph unicode="&#x2039;" horiz-adv-x="843" d="M158 506v186l493 371v-242l-293 -221l293 -221v-242z" />
<glyph unicode="&#x203a;" horiz-adv-x="843" d="M193 137v242l292 221l-292 221v242l493 -371v-186z" />
<glyph unicode="&#x205f;" horiz-adv-x="473" />
<glyph unicode="&#x20ac;" horiz-adv-x="1423" d="M-39 477l88 195h98q0 4 -1 14t-1 16v43v46q0 4 1 14t1 16h-186l88 195h129q76 246 256 375q178 129 440 129q115 0 216 -27q98 -27 198 -84v-309q-78 76 -174 117q-94 41 -190 40q-129 0 -217 -61q-86 -59 -134 -180h539l-86 -195h-494q-2 -10 -2 -35v-53v-28 q0 -4 1 -15.5t1 -17.5h429l-89 -195h-299q47 -119 138 -182q86 -61 213 -62q104 0 190 39q94 43 174 119v-309q-92 -53 -198 -82q-109 -29 -216 -29q-262 0 -442 131t-254 375h-217z" />
<glyph unicode="&#x2122;" horiz-adv-x="2048" d="M295 1350v143h518v-143h-174v-435h-172v435h-172zM926 915v578h227l119 -227l119 227h227v-578h-170v437l-137 -256h-76l-137 256v-437h-172z" />
<glyph unicode="&#x2202;" horiz-adv-x="1112" d="M59 391q0 205 119 336q121 133 299 133q100 0 170 -43q72 -43 119 -133q18 92 33 207q10 76 10 149q0 90 -29 148q-31 61 -69 61q-31 0 -131 -94q-98 -92 -181 -92q-49 0 -80 33q-33 37 -32 84q0 68 94 125q96 57 219 57q207 0 332 -162q123 -160 123 -440 q0 -346 -162 -565.5t-418 -219.5q-182 0 -299 117t-117 299zM332 287q0 -115 37 -176q35 -59 106 -60q94 0 160 135q63 133 63 346q0 115 -36.5 176.5t-104.5 61.5q-94 0 -159.5 -137t-65.5 -346z" />
<glyph unicode="&#x2206;" horiz-adv-x="1425" d="M0 0l563 1473h301l563 -1473h-1427zM387 256h653l-327 854z" />
<glyph unicode="&#x220f;" horiz-adv-x="1611" d="M150 -393v1866h1308v-1866h-344v1577h-620v-1577h-344z" />
<glyph unicode="&#x2211;" horiz-adv-x="1468" d="M41 -221l698 772l-673 690v232h1308v-265h-878l620 -645l-622 -690h933v-266h-1386v172z" />
<glyph unicode="&#x2212;" horiz-adv-x="1714" d="M217 524v236h1282v-236h-1282z" />
<glyph unicode="&#x2215;" horiz-adv-x="339" d="M-408 -29l934 1549h224l-934 -1549h-224z" />
<glyph unicode="&#x2219;" horiz-adv-x="776" d="M209 518v387h360v-387h-360z" />
<glyph unicode="&#x221a;" horiz-adv-x="1363" d="M76 879l360 127l223 -635l496 1343h215v-149h-96l-590 -1606h-119l-307 846l-145 -55z" />
<glyph unicode="&#x221e;" horiz-adv-x="1705" d="M195 608q0 186 88 305q86 117 227 117q86 0 166 -57.5t176 -198.5q70 129 149 195q78 63 175 63q141 0 239 -121q98 -120 98 -301q0 -188 -88 -307q-86 -117 -227 -117q-92 0 -166 56q-78 59 -176 200q-68 -127 -147 -192q-78 -63 -177 -64q-141 0 -237 121 q-100 125 -100 301zM315 612q0 -78 52 -127q55 -51 127 -51q70 0 133 53q59 49 125 170q-43 68 -100.5 101t-133.5 33q-92 0 -147.5 -49.5t-55.5 -129.5zM956 561q41 -66 103 -100q59 -35 131 -35q90 0 147 51q55 49 56 129q0 78 -52 127q-55 51 -127 51q-70 0 -131 -51 q-59 -51 -127 -172z" />
<glyph unicode="&#x222b;" horiz-adv-x="1247" d="M51 -182q0 66 41 104.5t113 38.5q57 0 92 -37q33 -35 33 -102q0 -16 -2 -25v-2q0 -25 8 -33q10 -10 26 -10q96 0 119 668q4 135 4 153q18 524 131 752q115 231 349 231q104 0 169.5 -53t65.5 -137q0 -63 -41 -104q-39 -39 -106 -39q-63 0 -96 38.5t-33 112.5q0 37 -6 49 q-4 10 -27 11q-102 0 -123 -666q0 -29 -2 -52.5t-2 -39.5q-12 -329 -31 -473q-16 -133 -57 -244q-61 -168 -160 -250q-96 -82 -229 -82q-109 0 -172.5 51.5t-63.5 139.5z" />
<glyph unicode="&#x2248;" horiz-adv-x="1714" d="M217 225v244q111 82 197 115q92 35 184 34q102 0 250 -59q8 -2 22 -8q4 0 9.5 -3t13.5 -5q154 -61 248 -62q84 0 170 37q82 35 188 123v-244q-111 -82 -196 -114q-92 -35 -185 -35q-109 0 -250 57q-14 6 -22 10q-2 0 -10.5 3.5t-12.5 5.5q-154 61 -248 61q-84 0 -174 -39 q-84 -35 -184 -121zM217 643v244q109 80 195 112q92 35 186 35q106 0 256 -59q6 -2 10 -3t6 -3l23 -8q154 -61 248 -62q84 0 170 37q82 35 188 123v-244q-111 -82 -196 -115q-92 -35 -185 -34q-102 0 -250 59q-10 4 -22 8q-14 4 -23 8q-154 61 -248 62q-90 0 -174 -39 q-92 -43 -184 -121z" />
<glyph unicode="&#x2260;" horiz-adv-x="1714" d="M217 295v237h424l176 220h-600v235h791l252 305l149 -125l-145 -180h235v-235h-418l-174 -220h592v-237h-790l-252 -305l-150 127l146 178h-236z" />
<glyph unicode="&#x2264;" horiz-adv-x="1714" d="M217 0v238h1282v-238h-1282zM217 623v235l1282 334v-244l-897 -209l897 -209v-243z" />
<glyph unicode="&#x2265;" horiz-adv-x="1714" d="M217 0v238h1282v-238h-1282zM217 287v243l897 209l-897 209v244l1282 -334v-235z" />
<glyph unicode="&#x25ca;" horiz-adv-x="1011" d="M6 592l500 1061l500 -1061l-500 -1069zM121 592l385 -825l385 825l-385 817z" />
<glyph unicode="&#xe000;" horiz-adv-x="1120" d="M0 1120h1120v-1120h-1120v1120z" />
<glyph unicode="&#xfb01;" horiz-adv-x="1517" d="M43 864v256h176v78q0 184 103 270q104 88 315 88h274v-235h-198q-78 0 -105 -27q-29 -29 -28 -96v-78h766v-1120h-361v864h-405v-864h-361v864h-176zM985 1264v292h361v-292h-361z" />
<glyph unicode="&#xfb02;" horiz-adv-x="1517" d="M39 864v256h178v78q0 184 102 270q104 88 316 88h711v-1556h-361v1321h-274q-78 0 -107 -26.5t-29 -96.5v-78h281v-256h-281v-864h-358v864h-178z" />
<glyph d="M197 1280v246h235v-246h-235zM592 1280v246h235v-246h-235z" />
<glyph d="M365 1262l198 264h283l-285 -264h-196z" />
<glyph d="M164 1262q0 2 1 7t1 9v14q0 104 53 170t141 66q37 0 74 -12q35 -12 76 -37l59 -39q18 -12 41 -21q25 -8 35 -8q39 0 57.5 31t18.5 86h139q0 -2 -1 -7t-1 -10v-14q0 -104 -53 -169.5t-141 -65.5q-37 0 -72 12q-47 16 -78 37l-55 35q-2 2 -10 6q-49 27 -74 26 q-31 0 -51 -30q-20 -29 -21 -80v-6h-139z" />
<glyph d="M178 1526h283l198 -264h-196z" />
<glyph d="M135 1262l223 264h308l223 -264h-178l-199 161l-199 -161h-178z" />
<glyph d="M135 1526h178l199 -162l199 162h178l-223 -264h-308z" />
<glyph d="M176 1526h143q20 -61 68 -90q49 -31 125 -31t125 31q47 29 68 90h143q-14 -129 -103 -197q-86 -68 -233 -67q-147 0 -233 67q-89 68 -103 197z" />
<glyph d="M375 1280v246h274v-246h-274z" />
</font>
</defs>
</svg>
